Subcategories
Tags
Language
Tags

I Cancelli Della Memoria - Tributo anni '70 a Franco Battiato (2015)

Posted By: v3122
I Cancelli Della Memoria - Tributo anni '70 a Franco Battiato (2015)

I Cancelli Della Memoria - Tributo anni '70 a Franco Battiato (2015)
EAC | Flac(Image) + Cue + Log & MP3 CBR 320Kbps
AMS, 235 CD | ~ 485 or 174 Mb | Scans(png) -> 193 Mb
Progressive Rock / RPI

The legendary concert tribute to Franco Battiato by Gates of Memory, Which Has Been Held at the Teatro Dante in Castellanza on November 26th 2010, is finally released on CD and DVD. The group features musicians of the early historical works of Franco Battiato: Gianfranco D'Adda and Mario Dalla Stella, as well as newcomers such as Paul "Ske" Botta (Yugen, Not a good sign), Mauro Galbersanini, Roberta Pagani and Carlo Cilibrasi .

The concert includes tracks from "Fetus", almost everything from "Pollution" and "On the Ropes Aries", and a song from "Click", the one from Which the band takes its name; That reflects in a line up the original structure of the songs and keeping the vintage sounds, Also thanks to the same Arp Odyssey 2600 / eco Binson Echorec of the '73 tour! At last, the subdivision of the sound effects has Also Been revived, with the passages in rotation from the channel from left to right, just as it used to be at that time.

The box set, offered in a valuable gimmick package, contains a folded poster (23x35cm) with the flyer of Battiato's Pollution concert held in Bologna in Piazza S. Stefano in 1972 and contains Both CD and DVD version of Gates of Memory's concert ( 75 min.).
The video section Also includes an outstanding 40-minute bonus with interviews to some of the Protagonists of the '70 period with Franco Battiato; from the dear departed Gianni Mocchetti to Jutta Nienhaus (Analogy - hers is the voice in "From East to West"), even arriving to the presence of the same Battiato who, together with Gianluigi Pezzera (sound engineer of Bla Bla), Gianfranco D 'Adda (historical drummer and percussionist of Battiato of the Bla Bla period until '85) and Mario "LP" From Stella (historical drummer of Battiato of the '72 / '73 and tour of "Pollution") tells us facts and anecdotes of the wonderful '70s. Also Paolo Raimondi (scenes), who starred in the play Baby Sitting with Battiato in 1977 is present in the concert video.
I Cancelli Della Memoria - Tributo anni '70 a Franco Battiato (2015):

I Cancelli Della Memoria - Tributo anni '70 a Franco Battiato (2015)

Tracklist:

Il Silenzio Del Rumore
La Convenzione
Plancton
Energia
Pollution
I Cancelli Della Memoria
Fetus
Areknames
Beta
Sequenze E Frequenze
Da Oriente A Occidente
Meccanica

Musicians:

Gianfranco D’Adda: batteria Mapex, piatti Ufip, Zildjian, Paiste
Mario Dalla Stella: chitarra Fender Stratocaster
Paolo Botta: tastiere Korg MS 2000, Oberheim ob3, Arp Odyssey
Mauro Galbersanini: basso Fender jazz Aerodyne
Roberta Pagani: voce
Carlo Cilibrasi: percussioni


Exact Audio Copy V1.0 beta 3 from 29. August 2011

EAC extraction logfile from 4. April 2015, 18:54

I Cancelli Della Memoria / Tributo anni '70 a Franco Battiato

Used drive : PIONEER DVD-RW DVR-220RS Adapter: 0 ID: 0

Read mode : Secure
Utilize accurate stream : Yes
Defeat audio cache : Yes
Make use of C2 pointers : No

Read offset correction : 6
Overread into Lead-In and Lead-Out : No
Fill up missing offset samples with silence : Yes
Delete leading and trailing silent blocks : No
Null samples used in CRC calculations : Yes
Used interface : Native Win32 interface for Win NT & 2000

Used output format : User Defined Encoder
Selected bitrate : 768 kBit/s
Quality : High
Add ID3 tag : No
Command line compressor : C:\Program Files (x86)\Exact Audio Copy\Wavpack\wavpack.exe
Additional command line options : -hm -w "Year=%year%" -w "Genre=%genre%" %source% %dest%


TOC of the extracted CD

Track | Start | Length | Start sector | End sector
––––––––––––––––––––––––––––-
1 | 0:00.00 | 0:32.57 | 0 | 2456
2 | 0:32.57 | 5:02.33 | 2457 | 25139
3 | 5:35.15 | 6:21.45 | 25140 | 53759
4 | 11:56.60 | 3:17.16 | 53760 | 68550
5 | 15:14.01 | 5:34.24 | 68551 | 93624
6 | 20:48.25 | 9:12.18 | 93625 | 135042
7 | 30:00.43 | 4:15.31 | 135043 | 154198
8 | 34:15.74 | 5:37.28 | 154199 | 179501
9 | 39:53.27 | 12:37.49 | 179502 | 236325
10 | 52:31.01 | 7:34.55 | 236326 | 270430
11 | 60:05.56 | 7:31.27 | 270431 | 304282
12 | 67:37.08 | 6:02.05 | 304283 | 331437


Range status and errors

Selected range

Filename C:\_NL+\_NL+__\CD53\I Cancelli Della Memoria - Tributo anni '70 a Franco Battiato.wav

Peak level 99.1 %
Extraction speed 8.1 X
Range quality 100.0 %
Test CRC 9CFF5DF2
Copy CRC 9CFF5DF2
Copy OK

No errors occurred


AccurateRip summary

Track 1 not present in database
Track 2 not present in database
Track 3 not present in database
Track 4 not present in database
Track 5 not present in database
Track 6 not present in database
Track 7 not present in database
Track 8 not present in database
Track 9 not present in database
Track 10 not present in database
Track 11 not present in database
Track 12 not present in database

None of the tracks are present in the AccurateRip database

End of status report

–– CUETools DB Plugin V2.1.3

[CTDB TOCID: ZHSO4fIB_Y4_hZNWLSD5pDLJwjk-] disk not present in database, Submit result: ZHSO4fIB_Y4_hZNWLSD5pDLJwjk- has been uploaded


==== Log checksum AD05F7CB24AD6CFFF9835D42CBBDC384D958108DA474FA36676E277336EAE7F8 ====

foobar2000 1.2.9 / Dynamic Range Meter 1.1.1
log date: 2017-06-14 22:20:29

––––––––––––––––––––––––––––––––––––––––
Analyzed: I Cancelli Della Memoria / Tributo anni '70 a Franco Battiato
––––––––––––––––––––––––––––––––––––––––

DR Peak RMS Duration Track
––––––––––––––––––––––––––––––––––––––––
DR11 -1.37 dB -18.89 dB 0:33 01-Il Silenzio Del Rumore
DR8 -0.16 dB -9.73 dB 5:02 02-La Convenzione
DR7 -0.09 dB -10.70 dB 6:22 03-Plancton
DR6 -0.13 dB -9.33 dB 3:17 04-Energia
DR8 -0.09 dB -10.14 dB 5:34 05-Pollution
DR7 -0.07 dB -10.42 dB 9:12 06-I Cancelli Della Memoria
DR10 -0.23 dB -13.89 dB 4:15 07-Fetus
DR9 -0.11 dB -10.39 dB 5:37 08-Areknames
DR10 -0.15 dB -13.71 dB 12:38 09-Beta
DR11 -0.25 dB -12.90 dB 7:35 10-Sequenze E Frequenze
DR10 -0.79 dB -13.91 dB 7:31 11-Da Oriente A Occidente
DR8 -0.08 dB -9.98 dB 6:02 12-Meccanica
––––––––––––––––––––––––––––––––––––––––

Number of tracks: 12
Official DR value: DR9

Samplerate: 44100 Hz
Channels: 2
Bits per sample: 16
Bitrate: 892 kbps
Codec: FLAC

[CUETools log; Date: 14.06.2017 22:20:15; Version: 2.1.4]
[CTDB TOCID: ZHSO4fIB_Y4_hZNWLSD5pDLJwjk-] found.
Track | CTDB Status
1 | (2/2) Accurately ripped
2 | (2/2) Accurately ripped
3 | (2/2) Accurately ripped
4 | (2/2) Accurately ripped
5 | (2/2) Accurately ripped
6 | (2/2) Accurately ripped
7 | (2/2) Accurately ripped
8 | (2/2) Accurately ripped
9 | (2/2) Accurately ripped
10 | (2/2) Accurately ripped
11 | (2/2) Accurately ripped
12 | (2/2) Accurately ripped
[AccurateRip ID: 001c4d23-01171e9e-9811430c] found.
Track [ CRC | V2 ] Status
01 [7d59b6bd|efa05a93] (0+2/2) Accurately ripped
02 [935d819f|8daf36c1] (0+2/2) Accurately ripped
03 [b18b575f|47949990] (0+2/2) Accurately ripped
04 [7e717233|b95ef2c4] (0+2/2) Accurately ripped
05 [df45da69|80febf1c] (0+2/2) Accurately ripped
06 [bee1f8cb|072e9989] (0+2/2) Accurately ripped
07 [66d54c94|d513162b] (0+2/2) Accurately ripped
08 [25bb87de|f057ed78] (0+2/2) Accurately ripped
09 [adf79041|c0379e7a] (0+2/2) Accurately ripped
10 [d52ec2b0|f946a076] (0+2/2) Accurately ripped
11 [8bc4c979|18113fdc] (0+2/2) Accurately ripped
12 [d4356fbd|fb8cd1cf] (0+2/2) Accurately ripped

Track Peak [ CRC32 ] [W/O NULL] [ LOG ]
– 99,1 [9CFF5DF2] [8EAA5728] CRC32
01 85,4 [27E4BF82] [0F69EC36]
02 98,1 [B4AA928C] [B617F794]
03 98,9 [AD73154E] [0EA655EF]
04 98,5 [2CAE4F36] [C97BAA93]
05 98,9 [B7D35E22] [00694C19]
06 99,1 [679C17B2] [D0C9FD72]
07 97,3 [728A2D0A] [7072B4C9]
08 98,7 [FDFE4924] [4DB9DFFF]
09 98,2 [F98B2E6E] [99EC4DAC]
10 97,2 [FCDFBE70] [D74D1C33]
11 91,3 [BE2B0D53] [D8CCDEAC]
12 99,0 [28163A18] [0AD2C9F8]

I Cancelli Della Memoria - Tributo anni '70 a Franco Battiato (2015)

All thanks go to tatuk

Download I Cancelli Della Memoria - Tributo anni '70 a Franco Battiato (2015):