Tags
Language
Tags

Chastity Belt - I Used to Spend So Much Time Alone (2017)

Posted By: SERTiL
Chastity Belt - I Used to Spend So Much Time Alone (2017)

Chastity Belt - I Used to Spend So Much Time Alone
XLD Rip | FLAC (tracks)+cue, log, front cover | 54:00 min | 326 MB
Label: Hardly Art | Tracks: 13 | Rls.date: 2017
Indie Rock, Post-Punk, Female Vocal

I Used to Spend So Much Time Alone is Chastity Belt’s third and finest full-length to date. Recorded live in July of 2016, at Jackpot! in Portland, Oregon, it’s a dark and uncommonly beautiful set of mood-driven rock that’s also unabashedly introspective. More personal and more direct than 2015’s marvelous Time to Go Home, this one aims for the heart—from the shimmering insights of “Different Now” to the stunning clarity of “This Time of Night,” this is a serious record but not a serious departure, a tangle of mixed emotions and haunting melody, a brave step forward.

TRACKLIST
01. Different Now 03:48
02. Caught in a Lie 03:55
03. This Time of Night 04:00
04. Stuck 03:44
05. Complain 04:44
06. It's Obvious 03:43
07. What the Hell 03:35
08. Something Else 04:54
09. Used to Spend 04:17
10. 5am 05:40
11. Don't Worry 03:32
12. Bender 04:38
13. I'm Fine 03:31

X Lossless Decoder version 20160920 (149.2)

XLD extraction logfile from 2017-05-31 19:00:37 -0400

Chastity Belt / I Used To Spend So Much Time Alone

Used drive : HL-DT-ST DVDRAM GP65NW60 (revision PF00)
Media type : Pressed CD

Ripper mode : XLD Secure Ripper
Disable audio cache : OK for the drive with a cache less than 1375KiB
Make use of C2 pointers : NO
Read offset correction : 102
Max retry count : 20
Gap status : Analyzed, Appended (except HTOA)

TOC of the extracted CD
Track | Start | Length | Start sector | End sector
––––––––––––––––––––––––––––-
1 | 00:00:00 | 03:48:60 | 0 | 17159
2 | 03:48:60 | 03:55:59 | 17160 | 34843
3 | 07:44:44 | 04:00:47 | 34844 | 52890
4 | 11:45:16 | 03:44:36 | 52891 | 69726
5 | 15:29:52 | 04:44:49 | 69727 | 91075
6 | 20:14:26 | 03:43:28 | 91076 | 107828
7 | 23:57:54 | 03:35:15 | 107829 | 123968
8 | 27:32:69 | 04:54:11 | 123969 | 146029
9 | 32:27:05 | 04:16:74 | 146030 | 165303
10 | 36:44:04 | 05:40:51 | 165304 | 190854
11 | 42:24:55 | 03:32:55 | 190855 | 206809
12 | 45:57:35 | 04:38:24 | 206810 | 227683
13 | 50:35:59 | 03:31:41 | 227684 | 243549

AccurateRip Summary
Disc not found in AccurateRip DB.

All Tracks
Album gain : -8.24 dB
Peak : 0.983673
Statistics
Read error : 0
Jitter error (maybe fixed) : 0
Retry sector count : 0
Damaged sector count : 0

Track 01
Filename : /Users/Shared/Chastity Belt - I Used To Spend So Much Time Alone (Unknown Year) [FLAC]/01 Different Now.flac
Pre-gap length : 00:02:00

Track gain : -8.42 dB
Peak : 0.961060
CRC32 hash (test run) : 8DE26257
CRC32 hash : 8DE26257
CRC32 hash (skip zero) : 66912ACA
AccurateRip v1 signature : 79DEE98D
AccurateRip v2 signature : 448C8565
->Track not present in AccurateRip database.
Statistics
Read error : 0
Jitter error (maybe fixed) : 0
Retry sector count : 0
Damaged sector count : 0

Track 02
Filename : /Users/Shared/Chastity Belt - I Used To Spend So Much Time Alone (Unknown Year) [FLAC]/02 Caught In A Lie.flac

Track gain : -7.97 dB
Peak : 0.965240
CRC32 hash (test run) : BD358882
CRC32 hash : BD358882
CRC32 hash (skip zero) : 9A74E3C6
AccurateRip v1 signature : 5A9C526B
AccurateRip v2 signature : 9FFF9125
->Track not present in AccurateRip database.
Statistics
Read error : 0
Jitter error (maybe fixed) : 0
Retry sector count : 0
Damaged sector count : 0

Track 03
Filename : /Users/Shared/Chastity Belt - I Used To Spend So Much Time Alone (Unknown Year) [FLAC]/03 This Time Of Night.flac

Track gain : -8.76 dB
Peak : 0.970947
CRC32 hash (test run) : ED6683A4
CRC32 hash : ED6683A4
CRC32 hash (skip zero) : 3552A614
AccurateRip v1 signature : 4E8A2B27
AccurateRip v2 signature : 4BA45010
->Track not present in AccurateRip database.
Statistics
Read error : 0
Jitter error (maybe fixed) : 0
Retry sector count : 0
Damaged sector count : 0

Track 04
Filename : /Users/Shared/Chastity Belt - I Used To Spend So Much Time Alone (Unknown Year) [FLAC]/04 Stuck.flac

Track gain : -7.42 dB
Peak : 0.959167
CRC32 hash (test run) : 962492D5
CRC32 hash : 962492D5
CRC32 hash (skip zero) : D9F23489
AccurateRip v1 signature : D481E181
AccurateRip v2 signature : 297A9908
->Track not present in AccurateRip database.
Statistics
Read error : 0
Jitter error (maybe fixed) : 0
Retry sector count : 0
Damaged sector count : 0

Track 05
Filename : /Users/Shared/Chastity Belt - I Used To Spend So Much Time Alone (Unknown Year) [FLAC]/05 Complain.flac

Track gain : -7.74 dB
Peak : 0.961060
CRC32 hash (test run) : EB53DC21
CRC32 hash : EB53DC21
CRC32 hash (skip zero) : 11B76007
AccurateRip v1 signature : 880B8ED1
AccurateRip v2 signature : DD72BE86
->Track not present in AccurateRip database.
Statistics
Read error : 0
Jitter error (maybe fixed) : 0
Retry sector count : 0
Damaged sector count : 0

Track 06
Filename : /Users/Shared/Chastity Belt - I Used To Spend So Much Time Alone (Unknown Year) [FLAC]/06 It's Obvious.flac

Track gain : -8.12 dB
Peak : 0.956390
CRC32 hash (test run) : 4E4B60FF
CRC32 hash : 4E4B60FF
CRC32 hash (skip zero) : AAC055B3
AccurateRip v1 signature : 3C140994
AccurateRip v2 signature : E527DD3C
->Track not present in AccurateRip database.
Statistics
Read error : 0
Jitter error (maybe fixed) : 0
Retry sector count : 0
Damaged sector count : 0

Track 07
Filename : /Users/Shared/Chastity Belt - I Used To Spend So Much Time Alone (Unknown Year) [FLAC]/07 What The Hell.flac

Track gain : -7.37 dB
Peak : 0.957458
CRC32 hash (test run) : EDBE5646
CRC32 hash : EDBE5646
CRC32 hash (skip zero) : C3802F71
AccurateRip v1 signature : B484475E
AccurateRip v2 signature : 9F6FB73A
->Track not present in AccurateRip database.
Statistics
Read error : 0
Jitter error (maybe fixed) : 0
Retry sector count : 0
Damaged sector count : 0

Track 08
Filename : /Users/Shared/Chastity Belt - I Used To Spend So Much Time Alone (Unknown Year) [FLAC]/08 Something Else.flac

Track gain : -8.91 dB
Peak : 0.962097
CRC32 hash (test run) : 0DD5DDE7
CRC32 hash : 0DD5DDE7
CRC32 hash (skip zero) : 56EC9CBC
AccurateRip v1 signature : E306F980
AccurateRip v2 signature : 8A6D5877
->Track not present in AccurateRip database.
Statistics
Read error : 0
Jitter error (maybe fixed) : 0
Retry sector count : 0
Damaged sector count : 0

Track 09
Filename : /Users/Shared/Chastity Belt - I Used To Spend So Much Time Alone (Unknown Year) [FLAC]/09 Used To Spend.flac

Track gain : -8.93 dB
Peak : 0.967102
CRC32 hash (test run) : C06D2D4D
CRC32 hash : C06D2D4D
CRC32 hash (skip zero) : 35704027
AccurateRip v1 signature : 1075F996
AccurateRip v2 signature : 844CF9BB
->Track not present in AccurateRip database.
Statistics
Read error : 0
Jitter error (maybe fixed) : 0
Retry sector count : 0
Damaged sector count : 0

Track 10
Filename : /Users/Shared/Chastity Belt - I Used To Spend So Much Time Alone (Unknown Year) [FLAC]/10 5am.flac

Track gain : -8.44 dB
Peak : 0.983673
CRC32 hash (test run) : B1655959
CRC32 hash : B1655959
CRC32 hash (skip zero) : 934B27E7
AccurateRip v1 signature : 2203F18C
AccurateRip v2 signature : C2C09979
->Track not present in AccurateRip database.
Statistics
Read error : 0
Jitter error (maybe fixed) : 0
Retry sector count : 0
Damaged sector count : 0

Track 11
Filename : /Users/Shared/Chastity Belt - I Used To Spend So Much Time Alone (Unknown Year) [FLAC]/11 Don't Worry.flac

Track gain : -7.73 dB
Peak : 0.954529
CRC32 hash (test run) : 7F0CBBC9
CRC32 hash : 7F0CBBC9
CRC32 hash (skip zero) : 85B1935F
AccurateRip v1 signature : 66DD1F11
AccurateRip v2 signature : F5564570
->Track not present in AccurateRip database.
Statistics
Read error : 0
Jitter error (maybe fixed) : 0
Retry sector count : 0
Damaged sector count : 0

Track 12
Filename : /Users/Shared/Chastity Belt - I Used To Spend So Much Time Alone (Unknown Year) [FLAC]/12 Bender.flac

Track gain : -7.30 dB
Peak : 0.965210
CRC32 hash (test run) : B35AD5C7
CRC32 hash : B35AD5C7
CRC32 hash (skip zero) : 5B684C9C
AccurateRip v1 signature : F845225D
AccurateRip v2 signature : 9FA49633
->Track not present in AccurateRip database.
Statistics
Read error : 0
Jitter error (maybe fixed) : 0
Retry sector count : 0
Damaged sector count : 0

Track 13
Filename : /Users/Shared/Chastity Belt - I Used To Spend So Much Time Alone (Unknown Year) [FLAC]/13 I'm Fine.flac

Track gain : -7.06 dB
Peak : 0.954895
CRC32 hash (test run) : DF1FD074
CRC32 hash : DF1FD074
CRC32 hash (skip zero) : 50813CA8
AccurateRip v1 signature : B3BC163D
AccurateRip v2 signature : 7AB93995
->Track not present in AccurateRip database.
Statistics
Read error : 0
Jitter error (maybe fixed) : 0
Retry sector count : 0
Damaged sector count : 0

No errors occurred

End of status report

––-BEGIN XLD SIGNATURE––-
niVJvNHUnns4CzC0jEpRJb6jxLivzuPRMyVhipn6siHbFcWjD46lCGA15wFbFPApbkDHi.fbFj_15.Mmy15JrxuIazeTgY.Auvic6O8
––-END XLD SIGNATURE––-


Thanks to the Original customer.