Subcategories

Ian Lloyd - Planet X (1997)

Posted By: v3122
Ian Lloyd - Planet X (1997)

Ian Lloyd - Planet X (1997)
EAC | Flac(Image) + Cue + Log & MP3 CBR 320Kbps
Dossier Records, MVM 1997-01 | ~ 403 or 130 Mb | Scans(jpg) -> 11 Mb
Pop Rock / AOR

For those who remember those great albums of the 1970s - About Us and Traveling Underground, when Ian Lloyd was singer for Stories, this album doesn't really reach the musical heights found there. There is a wide smattering of styles, a little of this, a little of that. Some of the ballad types are pretty nice, and there a few that are good dance tunes, but nothing really sticks in your head after its over. The last track is a redo of the first track of the Traveling Underground album of 1973, done at a more leisurely pace. I'm probably prejudiced, but this is the best track of the CD. If you are a die-hard Ian Lloyd fan, this is an OK album; if you've never heard him before, try Traveling Underground or even better, About Us, both Stories albums.

by Maxwell Sobel, amazon
Ian Lloyd - Planet X (1997):

Ian Lloyd - Planet X (1997)

Tracklist:

01. The Dream (2:40)
02. Walking on the Outside (3:18)
03. Heartbreak (3:38)
04. Forever Love (4:36)
05. Deeper & Deeper (6:11)
06. Dedicated To You (6:02)
07. Don*t be Afraid Of The Dark (4:21)
08. A Place in the Sun (4:55)
09. Silent Surrender (4:13)
10. Time will Tell (3:31)
11. 2 Can find a Way (3:59)
12. Bridges (5:32)
13. Alien Mantra (0:48)

Exact Audio Copy V1.3 from 2. September 2016

Отчёт EAC об извлечении, выполненном 8. мая 2018, 21:54

Ian Lloyd / Planet X

Дисковод: HL-DT-STDVDRAM GU40N Adapter: 1 ID: 0

Режим чтения : Достоверность
Использование точного потока : Да
Отключение кэша аудио : Да
Использование указателей C2 : Нет

Коррекция смещения при чтении : 103
Способность читать области Lead-in и Lead-out : Нет
Заполнение пропущенных сэмплов тишиной : Да
Удаление блоков с тишиной в начале и конце : Нет
При вычислениях CRC использовались нулевые сэмплы : Да
Интерфейс : Встроенный Win32-интерфейс для Win NT/2000

Выходной формат : Пользовательский кодировщик
Выбранный битрейт : 1024 kBit/s
Качество : Высокий
Добавление ID3-тега : Нет
Утилита сжатия : C:\Program Files (x86)\Exact Audio Copy\Flac\flac.exe
Дополнительные параметры : -V -8 -T "Date=%year%" -T "Genre=%genre%" %source%


TOC извлечённого CD

Трек | Старт | Длительность | Начальный сектор | Конечный сектор
––––––––––––––––––––––––––––––––––-
1 | 0:00.00 | 2:39.57 | 0 | 11981
2 | 2:39.57 | 3:18.23 | 11982 | 26854
3 | 5:58.05 | 3:38.27 | 26855 | 43231
4 | 9:36.32 | 4:36.30 | 43232 | 63961
5 | 14:12.62 | 6:11.03 | 63962 | 91789
6 | 20:23.65 | 6:02.10 | 91790 | 118949
7 | 26:26.00 | 4:20.45 | 118950 | 138494
8 | 30:46.45 | 4:55.27 | 138495 | 160646
9 | 35:41.72 | 4:13.10 | 160647 | 179631
10 | 39:55.07 | 3:31.28 | 179632 | 195484
11 | 43:26.35 | 3:58.62 | 195485 | 213396
12 | 47:25.22 | 5:32.10 | 213397 | 238306
13 | 52:57.32 | 0:48.05 | 238307 | 241911


Характеристики диапазона извлечения и сообщения об ошибках

Выбранный диапазон

Имя файла C:\Users\workutagin\Desktop\IAN LLOYD - PLANET X 1997flac\Ian Lloyd - Planet X.wav

Пиковый уровень 98.3 %
Скорость извлечения 2.0 X
Качество диапазона 100.0 %
CRC теста 641C74E7
CRC копии 641C74E7
Копирование… OK

Ошибок не произошло


AccurateRip: сводка

Трек 1 : извлечено точно (доверие 1) [3E879BD6] (AR v2)
Трек 2 : извлечено точно (доверие 1) [D653B8A4] (AR v2)
Трек 3 : извлечено точно (доверие 1) [0A6A30A9] (AR v2)
Трек 4 : извлечено точно (доверие 1) [49818005] (AR v2)
Трек 5 : извлечено точно (доверие 1) [28217045] (AR v2)
Трек 6 : извлечено точно (доверие 1) [9260C57F] (AR v2)
Трек 7 : извлечено точно (доверие 1) [B17E8241] (AR v2)
Трек 8 : извлечено точно (доверие 1) [DC4A0137] (AR v2)
Трек 9 : извлечено точно (доверие 1) [786464B6] (AR v2)
Трек 10 : извлечено точно (доверие 1) [52E201F2] (AR v2)
Трек 11 : извлечено точно (доверие 1) [C582D221] (AR v2)
Трек 12 : извлечено точно (доверие 1) [7474D896] (AR v2)
Трек 13 : извлечено точно (доверие 1) [9B0B593A] (AR v2)

Все треки извлечены точно

Конец отчёта

–– CUETools DB Plugin V2.1.6

[CTDB TOCID: .y9_ne1nh7XKk_EJtdVBYm0sjAo-] found
Submit result: .y9_ne1nh7XKk_EJtdVBYm0sjAo- has been confirmed
Track | CTDB Status
1 | (1/1) Accurately ripped
2 | (1/1) Accurately ripped
3 | (1/1) Accurately ripped
4 | (1/1) Accurately ripped
5 | (1/1) Accurately ripped
6 | (1/1) Accurately ripped
7 | (1/1) Accurately ripped
8 | (1/1) Accurately ripped
9 | (1/1) Accurately ripped
10 | (1/1) Accurately ripped
11 | (1/1) Accurately ripped
12 | (1/1) Accurately ripped
13 | (1/1) Accurately ripped


==== Контрольная сумма отчёта DA3B09FB5F8E58E159837E14AB8C6DFCEF5B8AE13603F5100C248D6260BA3AD8 ====


[CUETools log; Date: 17.05.2018 9:16:37; Version: 2.1.5]
[AccurateRip ID: 001a50e6-010b6f5b-c50c990d] found.
Track [ CRC | V2 ] Status
01 [3f45d051|3e879bd6] (0+1/1) Accurately ripped
02 [f57924ea|d653b8a4] (0+1/1) Accurately ripped
03 [ee23d8f9|0a6a30a9] (0+1/1) Accurately ripped
04 [72467e46|49818005] (0+1/1) Accurately ripped
05 [a7ccf1f2|28217045] (0+1/1) Accurately ripped
06 [810d779c|9260c57f] (0+1/1) Accurately ripped
07 [491b56db|b17e8241] (0+1/1) Accurately ripped
08 [45ccea36|dc4a0137] (0+1/1) Accurately ripped
09 [2b9fbe85|786464b6] (0+1/1) Accurately ripped
10 [189b6feb|52e201f2] (0+1/1) Accurately ripped
11 [2d66969b|c582d221] (0+1/1) Accurately ripped
12 [2a41dedd|7474d896] (0+1/1) Accurately ripped
13 [0b2444ca|9b0b593a] (0+1/1) Accurately ripped

Track Peak [ CRC32 ] [W/O NULL] [ LOG ]
– 98,3 [641C74E7] [55EDB587] CRC32
01 98,0 [FA348B0C] [015D42D9]
02 98,0 [FC6796BB] [546A112C]
03 98,0 [AED59D5D] [C83DA9D4]
04 98,0 [2FE0A037] [B20D45D4]
05 98,0 [36D5DD0D] [69312072]
06 89,5 [A0B33E48] [2CAA4AF3]
07 98,0 [1EAB4435] [B3560666]
08 98,0 [FFC84C15] [D7DC1322]
09 91,7 [B73B8AC4] [3BD8DC4F]
10 98,0 [5F00C770] [F788DD3C]
11 98,0 [5770590D] [D5266E30]
12 98,3 [99AA7488] [99237287]
13 98,0 [0B045DA6] [A595A057]


Ian Lloyd - Planet X (1997)

All thanks go to kikel

Ian Lloyd or Ian Lloyd in my Blog

Download Ian Lloyd - Planet X (1997):