Subcategories

Immerseel, Ghent Collegium Vocale - Orff: Carmina Burana (2014)

Posted By: peotuvave
Immerseel, Ghent Collegium Vocale - Orff: Carmina Burana (2014)

Immerseel, Ghent Collegium Vocale - Orff: Carmina Burana (2014)
EAC Rip | Flac (Tracks + cue + log) | 1 CD | Full Scans | 247 MB
Genre: Classical | Label: Zig Zag | Catalog Number: 353

Often described as ‘music for amateurs’, sometimes used (or misused) towards purely commercial ends, Orff’s Carmina Burana was clearly ready for a new approach, a sort of revivifying, thorough rethinking. This has now been done, thanks to Jos van Immerseel and the absolutely exceptional musical team that he assembled.

Faithful to what accounts for the force of his musical approach, Jos van Immerseel profoundly revolutionizes the sound image and interpretation of this score, thanks both to the very high quality of the chosen performers and to the singularity of the instruments and timbres of his orchestra.

So it is a very new way of approaching this work that Jos van Immerseel proposes, open-minded, without concession but with the great pleasure and joy of simply making music.

Composer: Carl Orff
Performer: Yeree Suh, Yves Saelens, Thomas [Baritone Vocal] Bauer
Conductor: Jos van Immerseel
Orchestra/Ensemble: Ghent Collegium Vocale, Cantate Domino Chorus, Anima Eterna Brugge

Reviews: Time to 'fess up, I actually like Carmina Burana; having recently reacquainted myself with Antal Doráti’s version – produced by the great Kenneth Wilkinson – I’m happy to admit to liking the piece even more. Ubiquity has done Carmina Burana no favours, and too many dull recordings haven’t helped. Among the latter are very disappointing performances from Richard Hickox and Paavo Järvi. The good news is that the catalogue is crammed with good 'uns, among them Jochum’s classic DG version and Blomstedt’s San Francisco one (Decca Universal).

Given that there are so many good Carmina Buranas about, do we really need another one? Well, yes, especially if it casts new light on a work whose gentler virtues are often subsumed by big, pile-driving performances. The Belgian conductor Jos van Immerseel and Anima Eterna already have a reputation for reinvigorating familiar repertoire, including Berlioz’s Symphonie fantastique and the waltzes, polkas and overtures of Johann Strauss. Such reappraisals court controversy, but there’s no doubting the care and enthusiasm that has gone into these recordings.

That’s evident in the Immerseel interview reproduced in the booklet, where he speaks candidly about his admiration for Carmina Burana, and his desire to present it in a way that distinguishes it from its loud, boisterous predecessors. To that end Anima Eterna play on pre-war instruments and the choral forces – 36 singers in all – are much smaller than usual. It doesn’t stop there, for Immerseel’s choice of soloists reflects his view of how they – and the work as a whole – should sound. The impressive 64-page booklet, meticulously annotated, puts the finishing touches to what is a carefully considered and very well planned package.

So, how does it sound? In a word, revelatory. Those who feel reduced forces can only result in a strained-through-the-sheets performance will be pleasantly surprised by the taut, crisply accented account of the work’s opening invocation. There’s no lack of weight here, and the oriental-sounding gong adds a dash of spice to the proceedings. The bass drum and percussion – powerful but not overpowering – are simply sensational, and the spacious, detailed recording captures that elusive sense of a live event. Apart from a few minor stage noises there are no audible compromises and the audience is commendably silent.

Even at this stage it’s clear we’re in for a treat. Orff’s instrumental colours have seldom glowed with such lustre, or his rhythms seemed so infectious. The singing is just as remarkable, for what the choruses may lack in sheer numbers they more than make up for in fine articulation and a rare sensitivity to the texts. According to Immerseel he wanted just the right Bavarian accents, which confirms yet again how thoroughly this project has been planned and executed. Veris leta facies is startling in its tactility and the nicely distanced chorus sing with real feeling. The simple, punctuating accompaniment has never sounded so discreet yet so vividly resonant.

Baritone Thomas Bauer’s Omnia sol temperat is delivered with real sincerity, and that reminds us these are living, breathing characters with itches to scratch, and not larger-than-life caricatures. Indeed, everything about this performance is perfectly scaled, and the benefits in terms of insight and enjoyment are immense. Some may quibble that the pauses between numbers are too long – so many conductors seem impatient to push ahead – but that too reminds us that this is a collection of contrasting pieces that deserve to be heard - and savoured - in their own good time.

Ecce gratum isn’t as lusty as some, but that hardly matters given this degree of detail and transparency of texture. These qualities also shine through in the dance from Uf dem Anger, which has pleasing athleticism and shape. By contrast Floret silva nobilis is sedate in a way that underlines the oft-hidden elegance - courtliness, even - of this finely crafted pastiche. What a thrill it is to hear this music delivered with such poise, and how perfectly it encapsulates the affectionate, all-revealing character of Immerseel's remarkable conception.

Hearing Carmina Burana done this way makes many rivals seem crude and breathless by comparison. Chramer, gip die varwe mir is sung in the freshest of tones and its slow, dragging accompaniment is a delight; the round dance that follows has added gravitas. Goodness, this performance is full of surprises, not least in the delicious thrust and parry of Swaz hie gat umbe, where individual voices are easily heard. This part of Carmina Burana ends with a spirited account of Were diu werlt alle min which, despite its smaller scale, has plenty of weight and amplitude. Anima Eterna’s brass and percussion players, whose individual presence is easier to discern here than it is in heftier recordings, are heroic throughout.

In taberna gets under way with Bauer’s ardent Estuans interius. His isn’t a particularly big voice or the most steady, but it’s imaginatively used. Tenor Yves Saelens does a fine roasted swan, and he copes well with the taxing tessitura the solo demands; he certainly doesn’t go for the strained falsetto, as some do. Once again the instrumental backing emerges with extra tizz and tingle. Perhaps the chorus could have been a bit more incisive at this point, but they make up for any reticence with a deft rendition of In taberna quando sumus; the latter is seasoned with a magnificently controlled bass drum and dashes of that piquant gong.

Cours d’amours opens with a rather measuredaccount of Amor volat undique in which the clear, atmospheric boys’ voices make a telling contrast with soprano Yeree Suh’s very unusual solo. She doesn't warble so much as coo, an effect that's not as odd or contrived as it may seem. Hers isn’t a large voice either, but it has all the range and sustaining power that the role demands. Bauer’s Dies, nox et omnia is even more accomplished, for it has a quiet, very personal intensity that fits well with the more introspective nature of this performance; ditto Suh’s Stetit puella, whose high notes display astonishing precision and purity.

Immerseel keeps it all moving nicely, with no loss of focus or direction. Those used to a bigger, more robust choral sound may feel this section is a tad underpowered, although the benefits of greater transparency are felt in moments of unexpected engagement and sudden shafts of loveliness. Take the three tenors who sing in Si puer cum puellula; so often they sound corporate, anonymous, but here they come across as a genuine, very spontaneous threesome. There’s a heightened sense of flirtation here, as the men and women circle each other in suggestive celebration. Suh’s In trutina is simply ravishing and she sounds suitably ravished in Dulcissime. Even after that, when lesser men are wont to droop, Immerseel goads and energises his players to a truly rousing finale. That cheeky gong adds its voice to the tumult.

Occasionally a recording comes along that compels one to hear a familiar work with new ears. Robin Ticciati’s Symphonie fantastique is one, and this Carmina Burana is another. Trouble is, these newcomers make it all but impossible to revisit long-established favourites. Immerseel’s Carmina Burana certainly won’t please everyone, but its approachable scale and abundance of insights might just convert a few non-believers.

Carmina Burana as you’ve never heard it before; a triumph for all concerned.

Tracklisting:

1. O Fortuna 2:36
2. Fortune plango vulnera 2:51
3. Veris leta facies 4:33
4. Omnia sol temperat 2:21
5. Ecce gratum 2:57
6. Tanz 1:38
7. Floret silva 3:36
8. Chramer, gib die varwe mir 3:36
9. Reie 4:50
10. Were diu werlt alle min 1:00
11. Estuans interius 2:28
12. Olim lacus colueram 3:41
13. Ego sum abbas 1:40
14. In taberna quando sumus 3:10
15. Amor volat undique 3:24
16. Dies, nox et omnia 2:24
17. Stetit puella 2:16
18. Circa mea pectora 2:01
19. Si puer cum puellula 1:05
20. Veni, veni, venias 1:03
21. In trutina 2:22
22. Tempus est iocundum 2:38
23. Dulcissime 0:54
24. Ave formosissima 1:41
25. O Fortuna 2:42

Exact Audio Copy V1.0 beta 3 from 29. August 2011

EAC extraction logfile from 4. December 2014, 12:07

Collegium Vocale Gent, Anima Eterna & Jos van Immerseel / Carl Orff - Carmina Burana

Used drive : ATAPI iHAS124 C Adapter: 0 ID: 0

Read mode : Secure
Utilize accurate stream : Yes
Defeat audio cache : Yes
Make use of C2 pointers : No

Read offset correction : 6
Overread into Lead-In and Lead-Out : No
Fill up missing offset samples with silence : Yes
Delete leading and trailing silent blocks : No
Null samples used in CRC calculations : Yes
Used interface : Native Win32 interface for Win NT & 2000
Gap handling : Appended to previous track

Used output format : User Defined Encoder
Selected bitrate : 1024 kBit/s
Quality : High
Add ID3 tag : No
Command line compressor : C:\Program Files (x86)\Exact Audio Copy\FLAC\FLAC.EXE
Additional command line options : -8 -V -T "ARTIST=%artist%" -T "TITLE=%title%" -T "ALBUM=%albumtitle%" -T "DATE=%year%" -T "TRACKNUMBER=%tracknr%" -T "GENRE=%genre%" -T "PERFORMER=%albuminterpret%" -T "COMPOSER=%composer%" %haslyrics%–tag-from-file=LYRICS="%lyricsfile%"%haslyrics% -T "ALBUMARTIST=%albumartist%" -T "DISCNUMBER=%cdnumber%" -T "TOTALDISCS=%totalcds%" -T "TOTALTRACKS=%numtracks%" -T "COMMENT=%comment%" %source% -o %dest%


TOC of the extracted CD

Track | Start | Length | Start sector | End sector
––––––––––––––––––––––––––––-
1 | 0:00.00 | 2:36.36 | 0 | 11735
2 | 2:36.36 | 2:51.48 | 11736 | 24608
3 | 5:28.09 | 4:33.18 | 24609 | 45101
4 | 10:01.27 | 2:21.67 | 45102 | 55743
5 | 12:23.19 | 2:57.08 | 55744 | 69026
6 | 15:20.27 | 1:38.07 | 69027 | 76383
7 | 16:58.34 | 3:36.33 | 76384 | 92616
8 | 20:34.67 | 3:36.14 | 92617 | 108830
9 | 24:11.06 | 4:50.46 | 108831 | 130626
10 | 29:01.52 | 1:00.70 | 130627 | 135196
11 | 30:02.47 | 2:28.35 | 135197 | 146331
12 | 32:31.07 | 3:41.61 | 146332 | 162967
13 | 36:12.68 | 1:40.62 | 162968 | 170529
14 | 37:53.55 | 3:10.63 | 170530 | 184842
15 | 41:04.43 | 3:24.56 | 184843 | 200198
16 | 44:29.24 | 2:24.73 | 200199 | 211071
17 | 46:54.22 | 2:16.34 | 211072 | 221305
18 | 49:10.56 | 2:01.64 | 221306 | 230444
19 | 51:12.45 | 1:05.17 | 230445 | 235336
20 | 52:17.62 | 1:03.21 | 235337 | 240082
21 | 53:21.08 | 2:22.25 | 240083 | 250757
22 | 55:43.33 | 2:38.36 | 250758 | 262643
23 | 58:21.69 | 0:54.13 | 262644 | 266706
24 | 59:16.07 | 1:41.22 | 266707 | 274303
25 | 60:57.29 | 2:41.47 | 274304 | 286425


Track 1

Filename H:\Orff - Carmina Burana (2014) (CVG, AEB, Immerseel) [FLAC]\01 Carmina Burana - Fortuna Imperatrix Mundi - O Fortuna.wav

Pre-gap length 0:00:02.00

Peak level 97.3 %
Extraction speed 5.0 X
Track quality 100.0 %
Test CRC 3856323F
Copy CRC 3856323F
Track not present in AccurateRip database
Copy OK

Track 2

Filename H:\Orff - Carmina Burana (2014) (CVG, AEB, Immerseel) [FLAC]\02 Fortuna Imperatrix Mundi - Fortune plango vulnera.wav

Peak level 82.3 %
Extraction speed 4.4 X
Track quality 99.9 %
Test CRC F4B5A995
Copy CRC F4B5A995
Track not present in AccurateRip database
Copy OK

Track 3

Filename H:\Orff - Carmina Burana (2014) (CVG, AEB, Immerseel) [FLAC]\03 I - Primo vere - Veris leta facies.wav

Peak level 25.6 %
Extraction speed 5.4 X
Track quality 99.9 %
Test CRC 1A99C18A
Copy CRC 1A99C18A
Track not present in AccurateRip database
Copy OK

Track 4

Filename H:\Orff - Carmina Burana (2014) (CVG, AEB, Immerseel) [FLAC]\04 I - Primo vere - Omnia sol temperat.wav

Peak level 10.2 %
Extraction speed 6.1 X
Track quality 100.0 %
Test CRC 0AF9F78B
Copy CRC 0AF9F78B
Track not present in AccurateRip database
Copy OK

Track 5

Filename H:\Orff - Carmina Burana (2014) (CVG, AEB, Immerseel) [FLAC]\05 I - Primo vere - Ecce gratum.wav

Peak level 96.9 %
Extraction speed 6.7 X
Track quality 100.0 %
Test CRC 3D27375E
Copy CRC 3D27375E
Track not present in AccurateRip database
Copy OK

Track 6

Filename H:\Orff - Carmina Burana (2014) (CVG, AEB, Immerseel) [FLAC]\06 Uf dem Anger - Tanz.wav

Peak level 93.3 %
Extraction speed 6.1 X
Track quality 100.0 %
Test CRC ED940E7B
Copy CRC ED940E7B
Track not present in AccurateRip database
Copy OK

Track 7

Filename H:\Orff - Carmina Burana (2014) (CVG, AEB, Immerseel) [FLAC]\07 Uf dem Anger - Floret silva.wav

Peak level 42.5 %
Extraction speed 6.2 X
Track quality 99.9 %
Test CRC 6485D6B7
Copy CRC 6485D6B7
Track not present in AccurateRip database
Copy OK

Track 8

Filename H:\Orff - Carmina Burana (2014) (CVG, AEB, Immerseel) [FLAC]\08 Uf dem Anger - Chramer, gib die varwe mir.wav

Peak level 16.4 %
Extraction speed 7.8 X
Track quality 100.0 %
Test CRC 0CB9A031
Copy CRC 0CB9A031
Track not present in AccurateRip database
Copy OK

Track 9

Filename H:\Orff - Carmina Burana (2014) (CVG, AEB, Immerseel) [FLAC]\09 Uf dem Anger - Reie.wav

Peak level 93.3 %
Extraction speed 8.5 X
Track quality 100.0 %
Test CRC 5F6A2222
Copy CRC 5F6A2222
Track not present in AccurateRip database
Copy OK

Track 10

Filename H:\Orff - Carmina Burana (2014) (CVG, AEB, Immerseel) [FLAC]\10 Uf dem Anger - Were diu werlt alle min.wav

Peak level 97.3 %
Extraction speed 6.1 X
Track quality 100.0 %
Test CRC F58FDD4B
Copy CRC F58FDD4B
Track not present in AccurateRip database
Copy OK

Track 11

Filename H:\Orff - Carmina Burana (2014) (CVG, AEB, Immerseel) [FLAC]\11 II - In Taberna - Estuans interius.wav

Pre-gap length 0:00:03.33

Peak level 96.7 %
Extraction speed 8.1 X
Track quality 100.0 %
Test CRC 47895BDC
Copy CRC 47895BDC
Track not present in AccurateRip database
Copy OK

Track 12

Filename H:\Orff - Carmina Burana (2014) (CVG, AEB, Immerseel) [FLAC]\12 II - In Taberna - Olim lacus colueram.wav

Peak level 61.4 %
Extraction speed 8.9 X
Track quality 100.0 %
Test CRC C8A372A4
Copy CRC C8A372A4
Track not present in AccurateRip database
Copy OK

Track 13

Filename H:\Orff - Carmina Burana (2014) (CVG, AEB, Immerseel) [FLAC]\13 II - In Taberna - Ego sum abbas.wav

Peak level 98.2 %
Extraction speed 7.8 X
Track quality 100.0 %
Test CRC 3CA5620B
Copy CRC 3CA5620B
Track not present in AccurateRip database
Copy OK

Track 14

Filename H:\Orff - Carmina Burana (2014) (CVG, AEB, Immerseel) [FLAC]\14 II - In Taberna - In taberna quando sumus.wav

Peak level 96.9 %
Extraction speed 9.1 X
Track quality 100.0 %
Test CRC 43F30698
Copy CRC 43F30698
Track not present in AccurateRip database
Copy OK

Track 15

Filename H:\Orff - Carmina Burana (2014) (CVG, AEB, Immerseel) [FLAC]\15 III - Cour d'amours - Amor volat undique.wav

Pre-gap length 0:00:03.47

Peak level 11.8 %
Extraction speed 9.5 X
Track quality 100.0 %
Test CRC D53942A2
Copy CRC D53942A2
Track not present in AccurateRip database
Copy OK

Track 16

Filename H:\Orff - Carmina Burana (2014) (CVG, AEB, Immerseel) [FLAC]\16 III - Cour d'amours - Dies, nox et omnia.wav

Peak level 11.5 %
Extraction speed 9.2 X
Track quality 100.0 %
Test CRC 54888352
Copy CRC 54888352
Track not present in AccurateRip database
Copy OK

Track 17

Filename H:\Orff - Carmina Burana (2014) (CVG, AEB, Immerseel) [FLAC]\17 III - Cour d'amours - Stetit puella.wav

Peak level 17.6 %
Extraction speed 6.9 X
Track quality 99.9 %
Test CRC ABB4E022
Copy CRC ABB4E022
Track not present in AccurateRip database
Copy OK

Track 18

Filename H:\Orff - Carmina Burana (2014) (CVG, AEB, Immerseel) [FLAC]\18 III - Cour d'amours - Circa mea pectora.wav

Peak level 77.2 %
Extraction speed 6.7 X
Track quality 99.9 %
Test CRC 843E8F80
Copy CRC 843E8F80
Track not present in AccurateRip database
Copy OK

Track 19

Filename H:\Orff - Carmina Burana (2014) (CVG, AEB, Immerseel) [FLAC]\19 III - Cour d'amours - Si puer cum puellula.wav

Peak level 18.6 %
Extraction speed 7.7 X
Track quality 100.0 %
Test CRC 53F4BCA6
Copy CRC 53F4BCA6
Track not present in AccurateRip database
Copy OK

Track 20

Filename H:\Orff - Carmina Burana (2014) (CVG, AEB, Immerseel) [FLAC]\20 III - Cour d'amours - Veni, veni, venias.wav

Peak level 89.3 %
Extraction speed 7.6 X
Track quality 100.0 %
Test CRC 7D985153
Copy CRC 7D985153
Track not present in AccurateRip database
Copy OK

Track 21

Filename H:\Orff - Carmina Burana (2014) (CVG, AEB, Immerseel) [FLAC]\21 III - Cour d'amours - In trutina.wav

Peak level 8.1 %
Extraction speed 9.7 X
Track quality 100.0 %
Test CRC 6855DB84
Copy CRC 6855DB84
Track not present in AccurateRip database
Copy OK

Track 22

Filename H:\Orff - Carmina Burana (2014) (CVG, AEB, Immerseel) [FLAC]\22 III - Cour d'amours - Tempus est iocundum.wav

Peak level 75.1 %
Extraction speed 10.1 X
Track quality 100.0 %
Test CRC 43CA0791
Copy CRC 43CA0791
Track not present in AccurateRip database
Copy OK

Track 23

Filename H:\Orff - Carmina Burana (2014) (CVG, AEB, Immerseel) [FLAC]\23 III - Cour d'amours - Dulcissime.wav

Peak level 15.9 %
Extraction speed 7.3 X
Track quality 100.0 %
Test CRC A24BF6AA
Copy CRC A24BF6AA
Track not present in AccurateRip database
Copy OK

Track 24

Filename H:\Orff - Carmina Burana (2014) (CVG, AEB, Immerseel) [FLAC]\24 Blanziflor et Helena - Ave formosissima.wav

Peak level 96.9 %
Extraction speed 9.3 X
Track quality 100.0 %
Test CRC 00820340
Copy CRC 00820340
Track not present in AccurateRip database
Copy OK

Track 25

Filename H:\Orff - Carmina Burana (2014) (CVG, AEB, Immerseel) [FLAC]\25 Fortuna Imperatrix Mundi - O Fortuna.wav

Peak level 98.1 %
Extraction speed 10.3 X
Track quality 100.0 %
Test CRC 4C292337
Copy CRC 4C292337
Track not present in AccurateRip database
Copy OK


None of the tracks are present in the AccurateRip database

No errors occurred

End of status report

–– CUETools DB Plugin V2.1.3

[CTDB TOCID: 2cu9zAcXvZjQiMqdWKWMPw8RMmE-] disk not present in database, Submit result: 2cu9zAcXvZjQiMqdWKWMPw8RMmE- has been uploaded


==== Log checksum 90D63C1DC31C840997F69BAE836A631DD3DBF524254FB1FED7256C8E1FA0850A ====



Thanks to the original releaser

Download:

Nitroflare