Subcategories

Imperia - Queen Of Light (2007)

Posted By: v3122
Imperia - Queen Of Light (2007)

Imperia - Queen Of Light (2007)
EAC | WV(Image) + Cue + Log & MP3 CBR 320Kbps
Massacre Records, MAS CD0543 | ~ 499 or 160 Mb | Artwork(jpg) -> 117 Mb
Symphonic Gothic Metal

Helena Michaelsen returns with the second release of IMPERIA, the countermeasure band she formed after her departure from TRAIL OF TEARS. Have you noticed that all female fronted metal goth acts out there end with an IA in their name (SIRENIA, TRISTANIA etc.)?
Now that's a distinct mark of recognition. Let's say that you are a grindcore fan and visit a metal store. You pick up two albums - the one comes from a band named CORPSE INFESTED FUNGUS FROM ANUS and the other from a random named finish with an IA band. Both bands are totally unknown to you. Which one would you choose?
OK enough with the melodic grindcore jokes. IMPERIA is quite metallic compared with other fellow bands. In fact several songs in here could easily fit in a Europower metal band's album. Not bad huh? Indeed there are a lot of heavy moments in this work - one can say that this brings in mind the earlier days of NIGHTWISH (when they where NOT so pompous as they are today).
Of course the whole project rotates around the distinct voice of Helena. This gal can really sing, Helena's vocal abilities are incredible since she can sing with different tones. Her voice is quite multileveled. A word to the wise is to ask all of you to check out her solo release as ANGEL in order to fully understand her abilities.
Queen Of Light is packed with great production, quite warm and thick giving additional tension to the symphonic parts of the album. All in all this is a work that will satisfy the fans of the genre.

by Michael Dalakos, metal-temple.com
Imperia - Queen Of Light (2007)

Imperia - Queen Of Light (2007):

Imperia - Queen Of Light (2007)

Tracklist:

01. Mirror
02. Fly Like The Wind
03. Raped By The Devil
04. Broken Wings
05. Braveheart
06. Facing Reality
07. Norway
08. Abyssum
09. The Birth Of… (Instrumental)
10. Queen Of Light
11. Fata Morgana
12. The Calling
13. Missing You

Exact Audio Copy V0.99 prebeta 4 from 23. January 2008

EAC extraction logfile from 20. December 2008, 9:23

Imperia / Queen Of Light

Used drive : TSSTcorpCDDVDW SH-S223F Adapter: 0 ID: 0

Read mode : Secure
Utilize accurate stream : Yes
Defeat audio cache : Yes
Make use of C2 pointers : No

Read offset correction : 6
Overread into Lead-In and Lead-Out : No
Fill up missing offset samples with silence : Yes
Delete leading and trailing silent blocks : No
Null samples used in CRC calculations : Yes
Used interface : Installed external ASPI interface

Used output format : User Defined Encoder
Selected bitrate : 128 kBit/s
Quality : High
Add ID3 tag : No
Command line compressor : C:\Program\Exact Audio Copy\WavPack\wavpack.exe
Additional command line options : -w "Artist=%a" -w "Title=%t" -w "Album=%g" -w "Year=%y" -w "Track=%n" -w "Genre=%m" -h -m %s %d


TOC of the extracted CD

Track | Start | Length | Start sector | End sector
––––––––––––––––––––––––––––-
1 | 0:00.00 | 4:32.72 | 0 | 20471
2 | 4:32.72 | 4:57.60 | 20472 | 42806
3 | 9:30.57 | 4:14.25 | 42807 | 61881
4 | 13:45.07 | 6:32.00 | 61882 | 91281
5 | 20:17.07 | 5:36.26 | 91282 | 116507
6 | 25:53.33 | 5:24.56 | 116508 | 140863
7 | 31:18.14 | 4:48.57 | 140864 | 162520
8 | 36:06.71 | 6:49.37 | 162521 | 193232
9 | 42:56.33 | 3:11.64 | 193233 | 207621
10 | 46:08.22 | 4:58.12 | 207622 | 229983
11 | 51:06.34 | 5:45.00 | 229984 | 255858
12 | 56:51.34 | 5:50.23 | 255859 | 282131
13 | 62:41.57 | 5:08.00 | 282132 | 305231


Range status and errors

Selected range

Filename E:\Imperia - Queen Of Light.wav

Peak level 97.7 %
Range quality 99.9 %
Copy CRC FE2D7DBD
Copy OK

No errors occurred


AccurateRip summary

Track 1 accurately ripped (confidence 21) [E78DEDCC]
Track 2 accurately ripped (confidence 21) [43315788]
Track 3 accurately ripped (confidence 21) [EBF01C64]
Track 4 accurately ripped (confidence 21) [CA8182C9]
Track 5 accurately ripped (confidence 21) [E988CB75]
Track 6 accurately ripped (confidence 21) [5AD9D624]
Track 7 accurately ripped (confidence 21) [FCB75FA1]
Track 8 accurately ripped (confidence 21) [F61B65BE]
Track 9 accurately ripped (confidence 21) [DDFF8540]
Track 10 accurately ripped (confidence 21) [73DCEA80]
Track 11 accurately ripped (confidence 21) [A90B9D0C]
Track 12 accurately ripped (confidence 21) [6BB075C6]
Track 13 accurately ripped (confidence 21) [6A238DFE]

All tracks accurately ripped

End of status report


[CUETools log; Date: 12.01.2019 6:07:22; Version: 2.1.4]
[AccurateRip ID: 002033be-0143b705-c20fe50d] found.
Track [ CRC | V2 ] Status
01 [e78dedcc|97b312c2] (23+04/39) Accurately ripped
02 [43315788|be1f520b] (23+04/39) Accurately ripped
03 [ebf01c64|487cb9ba] (23+04/38) Accurately ripped
04 [ca8182c9|e2a71c24] (23+04/39) Accurately ripped
05 [e988cb75|a69a1722] (23+04/39) Accurately ripped
06 [5ad9d624|0f0a10ac] (23+04/39) Accurately ripped
07 [fcb75fa1|d3943dc2] (23+04/39) Accurately ripped
08 [f61b65be|b0cbcfb7] (23+04/39) Accurately ripped
09 [ddff8540|776a8f1c] (23+04/38) Accurately ripped
10 [73dcea80|6a6cbd43] (23+04/39) Accurately ripped
11 [a90b9d0c|9d5a8d85] (23+04/39) Accurately ripped
12 [6bb075c6|24ef9618] (23+04/39) Accurately ripped
13 [6a238dfe|4c158d3f] (23+04/37) Accurately ripped
Offsetted by 18:
01 [e4f99c92] (06/39) Accurately ripped
02 [42a67e78] (06/39) Accurately ripped
03 [5868231a] (05/38) Accurately ripped
04 [3d7c2611] (06/39) Accurately ripped
05 [186a3bbd] (06/39) Accurately ripped
06 [ac648848] (06/39) Accurately ripped
07 [9331e7d7] (06/39) Accurately ripped
08 [dcd960d8] (06/39) Accurately ripped
09 [6a2577c4] (05/38) Accurately ripped
10 [bc59f6d5] (06/39) Accurately ripped
11 [93aeae53] (06/39) Accurately ripped
12 [bae71922] (06/39) Accurately ripped
13 [6c681670] (06/37) Accurately ripped
Offsetted by -664:
01 [68c7218d] (02/39) Accurately ripped
02 [3af4807f] (02/39) Accurately ripped
03 [bc6b969c] (02/38) Accurately ripped
04 [1dc03469] (02/39) Accurately ripped
05 [5b44d515] (02/39) Accurately ripped
06 [1e37d5b0] (02/39) Accurately ripped
07 [4ec2f7ad] (02/39) Accurately ripped
08 [1748c40f] (02/39) Accurately ripped
09 [72c9685c] (02/38) Accurately ripped
10 [d6956e95] (02/39) Accurately ripped
11 [26492eae] (02/39) Accurately ripped
12 [e52640f6] (02/39) Accurately ripped
13 [d964d519] (00/37) No match (V2 was not tested)
Offsetted by -18:
01 [ea223f06] (00/39) No match (V2 was not tested)
02 [43bc3098] (00/39) No match (V2 was not tested)
03 [7f7815ae] (00/38) No match (V2 was not tested)
04 [5786df81] (00/39) No match (V2 was not tested)
05 [baa75b2d] (00/39) No match (V2 was not tested)
06 [094f2400] (00/39) No match (V2 was not tested)
07 [663cd76b] (00/39) No match (V2 was not tested)
08 [0f5d6aa4] (00/39) No match (V2 was not tested)
09 [0fbe7b3d] (00/38) No match (V2 was not tested)
10 [732d30f7] (00/39) No match (V2 was not tested)
11 [be158c00] (00/39) No match (V2 was not tested)
12 [1c79d26a] (00/39) No match (V2 was not tested)
13 [79bfa908] (00/37) No match (V2 was not tested)

Track Peak [ CRC32 ] [W/O NULL] [ LOG ]
– 97,7 [FE2D7DBD] [1767D316] CRC32
01 97,7 [4019A765] [3C6DCB16]
02 97,7 [96242AA2] [033961CA]
03 97,7 [9E448B92] [97E17DF6]
04 97,7 [9AC928D3] [41EB589D]
05 97,7 [BD98120B] [D61A46F8]
06 97,7 [EB2973F7] [1FCDC207]
07 97,7 [402C546E] [0B24FF45]
08 97,7 [0B952963] [BBF4C24D]
09 97,7 [F0C3A534] [1032E099]
10 97,7 [DD67896E] [CD133B11]
11 97,7 [D0E9116D] [9797DA17]
12 97,7 [DFB8DBB0] [9F5862ED]
13 75,0 [2318F63A] [D7702C21]


Imperia - Queen Of Light (2007)

All thanks go to SixSixSixten

Download Imperia - Queen Of Light (2007):