Tags
Language
Tags

Ingo Metzmacher, Bamberger Symphoniker - Ives: Robert Browning Overture; Hartmann: Symphonie No.3 (1995)

Posted By: ArlegZ
Ingo Metzmacher, Bamberger Symphoniker - Ives: Robert Browning Overture;  Hartmann: Symphonie No.3 (1995)

Ingo Metzmacher, Bamberger Symphoniker - Charles Ives: Robert Browning Overture; Karl Amadeus Hartmann: Symphonie No.3 (1995)
EAC | FLAC | Image (Cue & Log) ~ 196 Mb | Total time: 51:59 | Scans included
Classical | EMI Classics | # 5 55254 2 | Recorded: 1994

This recording offers impassioned, clear, and intelligent presentations of two little-known but impressive pieces of earlier twentieth century music.

Performer:
Bamberger Symphoniker
Ingo Metzmacher, conductor

Track List:
Charles Ives (1874-1954)
Robert Browning Overture (1908-12)
01. Adagio maestoso. Largo –
02. Allegro con spirito –
03. Adagio –
04. Allegro con spirito
Karl Amadeus Hartmann (1905-1963)
Sinfonie Nr. 3 (1948-49)
05. I. Largo ma non troppo – Allegro con fuoco (Virtuose Fuge)
06. II. Adagio (Mit bewegtem Ausdruck) – Andante – Allegro moderato – Andante – Adagio


Exact Audio Copy V1.6 from 23. October 2020

EAC extraction logfile from 16. October 2021, 15:50

Ingo Metzmacher / Ives/Hartmann: Robert Browning Ov/Sym No 3; Metzmacher/Bamberger SO

Used drive : ATAPI iHAS122 F Adapter: 1 ID: 0

Read mode : Secure
Utilize accurate stream : Yes
Defeat audio cache : Yes
Make use of C2 pointers : No

Read offset correction : 6
Overread into Lead-In and Lead-Out : No
Fill up missing offset samples with silence : Yes
Delete leading and trailing silent blocks : No
Null samples used in CRC calculations : Yes
Used interface : Native Win32 interface for Win NT & 2000

Used output format : User Defined Encoder
Selected bitrate : 896 kBit/s
Quality : High
Add ID3 tag : No
Command line compressor : C:\Program Files (x86)\Exact Audio Copy\Flac\flac.exe
Additional command line options : -6 -V -T "ARTIST=%artist%" -T "TITLE=%title%" -T "ALBUM=%albumtitle%" -T "DATE=%year%" -T "TRACKNUMBER=%tracknr%" -T "GENRE=%genre%" -T "COMMENT=%comment%" -T "BAND=%albuminterpret%" -T "ALBUMARTIST=%albuminterpret%" -T "COMPOSER=%composer%" %haslyrics%–tag-from-file=LYRICS="%lyricsfile%"%haslyrics% -T "DISCNUMBER=%cdnumber%" -T "TOTALDISCS=%totalcds%" -T "TOTALTRACKS=%numtracks%" %hascover%–picture="%coverfile%"%hascover% %source% -o %dest%


TOC of the extracted CD

Track | Start | Length | Start sector | End sector
––––––––––––––––––––––––––––-
1 | 0:00.00 | 3:01.05 | 0 | 13579
2 | 3:01.05 | 4:05.00 | 13580 | 31954
3 | 7:06.05 | 7:40.68 | 31955 | 66522
4 | 14:46.73 | 6:48.02 | 66523 | 97124
5 | 21:35.00 | 16:17.70 | 97125 | 170469
6 | 37:52.70 | 14:06.30 | 170470 | 233949


Range status and errors

Selected range

Filename K:\Tubarec rips\Hartmann - Complete Symphonies - Metzmacher\Symphony 3 etc\Ingo Metzmacher - Ives,Hartmann- Robert Browning Ov,Sym No 3; Metzmacher,Bamberger SO.wav

Peak level 84.2 %
Extraction speed 7.8 X
Range quality 100.0 %
Test CRC B0B7E443
Copy CRC B0B7E443
Copy OK

No errors occurred


AccurateRip summary

Track 1 accurately ripped (confidence 4) [72E2DA58] (AR v2)
Track 2 accurately ripped (confidence 4) [7F63E024] (AR v2)
Track 3 accurately ripped (confidence 4) [8803C0FA] (AR v2)
Track 4 accurately ripped (confidence 4) [A7F50346] (AR v2)
Track 5 accurately ripped (confidence 4) [C71D850A] (AR v2)
Track 6 accurately ripped (confidence 4) [0A3BD139] (AR v2)

All tracks accurately ripped

End of status report

–– CUETools DB Plugin V2.1.6

[CTDB TOCID: jJdMh.nrcneHuD_tlZzQVMA1IPA-] found
Submit result: jJdMh.nrcneHuD_tlZzQVMA1IPA- has been confirmed
Track | CTDB Status
1 | (13/13) Accurately ripped
2 | (13/13) Accurately ripped
3 | (13/13) Accurately ripped
4 | (13/13) Accurately ripped
5 | (13/13) Accurately ripped
6 | (13/13) Accurately ripped


==== Log checksum 969EB725F157AED3FB5D4588FF5B3216107111307C15D0D3B5DBA02596E6975B ====

Ingo Metzmacher, Bamberger Symphoniker - Ives: Robert Browning Overture;  Hartmann: Symphonie No.3 (1995)

Thanks to the original releaser