Tags
Language
Tags

Ingo Metzmacher - Hartmann: Symphonies Nos. 2 & 5; Zimmermann; Stravinsky (1997)

Posted By: ArlegZ
Ingo Metzmacher - Hartmann: Symphonies Nos. 2 & 5; Zimmermann; Stravinsky (1997)

Ingo Metzmacher - Hartmann: Symphonies Nos. 2 & 5; Zimmermann: Symphonie in einem Satz; Stravinsky: Symphony in Three Movements (1997)
EAC | FLAC | Image (Cue & Log) ~ 237 Mb | Total time: 68:00 | Scans included
Classical | EMI Classics | # 5 56184 2 | Recorded: 1995, 1996

The symphonies presented on this CD are all quite different in their compositional intentions and basic stylistic traits, but they do evidence certain parallels in their formal design (two works in one movement, two times three movements), their origins and in several other aspects.

Performer:
Bamberger Symphoniker
Ingo Metzmacher, conductor

Track List:
Bernd Alois Zimmermann (1918-1970)
01. Symphonie in einem Satz (1951/53)
Karl Amadeus Hartmann (1905-1963)
02. Symphonie Nr.2 Adagio für grosses Orchester (1946/50)
Symphonie Nr.5 (1951)
03. I. Toccata (lebhaft)
04. II. Melodie
05. III. Rondo (lustig - sehr lebhaft)
Igor Stravinsky (1882-1971)
Symphony in Three Movements
06. I. ♩ = 160
07. II. Andante - Interlude
08. III. Con moto


Exact Audio Copy V1.6 from 23. October 2020

EAC extraction logfile from 16. October 2021, 16:11

Ingo Metzmacher / Hartmann: Symphonies Nos 2 & 5 - Zimmermann - Stravinsky

Used drive : ATAPI iHAS122 F Adapter: 1 ID: 0

Read mode : Secure
Utilize accurate stream : Yes
Defeat audio cache : Yes
Make use of C2 pointers : No

Read offset correction : 6
Overread into Lead-In and Lead-Out : No
Fill up missing offset samples with silence : Yes
Delete leading and trailing silent blocks : No
Null samples used in CRC calculations : Yes
Used interface : Native Win32 interface for Win NT & 2000

Used output format : User Defined Encoder
Selected bitrate : 896 kBit/s
Quality : High
Add ID3 tag : No
Command line compressor : C:\Program Files (x86)\Exact Audio Copy\Flac\flac.exe
Additional command line options : -6 -V -T "ARTIST=%artist%" -T "TITLE=%title%" -T "ALBUM=%albumtitle%" -T "DATE=%year%" -T "TRACKNUMBER=%tracknr%" -T "GENRE=%genre%" -T "COMMENT=%comment%" -T "BAND=%albuminterpret%" -T "ALBUMARTIST=%albuminterpret%" -T "COMPOSER=%composer%" %haslyrics%–tag-from-file=LYRICS="%lyricsfile%"%haslyrics% -T "DISCNUMBER=%cdnumber%" -T "TOTALDISCS=%totalcds%" -T "TOTALTRACKS=%numtracks%" %hascover%–picture="%coverfile%"%hascover% %source% -o %dest%


TOC of the extracted CD

Track | Start | Length | Start sector | End sector
––––––––––––––––––––––––––––-
1 | 0:00.00 | 14:30.50 | 0 | 65299
2 | 14:30.50 | 15:37.00 | 65300 | 135574
3 | 30:07.50 | 4:56.12 | 135575 | 157786
4 | 35:03.62 | 7:24.35 | 157787 | 191121
5 | 42:28.22 | 4:03.28 | 191122 | 209374
6 | 46:31.50 | 9:26.12 | 209375 | 251836
7 | 55:57.62 | 6:09.00 | 251837 | 279511
8 | 62:06.62 | 5:54.13 | 279512 | 306074


Range status and errors

Selected range

Filename K:\Tubarec rips\Hartmann - Complete Symphonies - Metzmacher\Symphonies 2 & 5\Ingo Metzmacher - Hartmann- Symphonies Nos 2 & 5 - Zimmermann - Stravinsky.wav

Peak level 99.8 %
Extraction speed 8.9 X
Range quality 100.0 %
Test CRC 38738FC6
Copy CRC 38738FC6
Copy OK

No errors occurred


AccurateRip summary

Track 1 accurately ripped (confidence 4) [15BABE67] (AR v2)
Track 2 accurately ripped (confidence 4) [0FEFA9CE] (AR v2)
Track 3 accurately ripped (confidence 4) [2530DA8F] (AR v2)
Track 4 accurately ripped (confidence 4) [615F38DC] (AR v2)
Track 5 accurately ripped (confidence 4) [FBACD320] (AR v2)
Track 6 accurately ripped (confidence 4) [952F8FCF] (AR v2)
Track 7 accurately ripped (confidence 4) [F4F8227D] (AR v2)
Track 8 accurately ripped (confidence 4) [6213F1DD] (AR v2)

All tracks accurately ripped

End of status report

–– CUETools DB Plugin V2.1.6

[CTDB TOCID: yMt4t4Xc_6jxdSBYO1PeReAOc7c-] found
Submit result: yMt4t4Xc_6jxdSBYO1PeReAOc7c- has been confirmed
Track | CTDB Status
1 | (12/12) Accurately ripped
2 | (12/12) Accurately ripped
3 | (12/12) Accurately ripped
4 | (12/12) Accurately ripped
5 | (12/12) Accurately ripped
6 | (12/12) Accurately ripped
7 | (12/12) Accurately ripped
8 | (12/12) Accurately ripped


==== Log checksum 8A3E726E0FF6F3707DB6B45BF721CE5CCF74F1334146281CA82E6A7A48045DA3 ====

Ingo Metzmacher - Hartmann: Symphonies Nos. 2 & 5; Zimmermann; Stravinsky (1997)

Thanks to the original releaser