Subcategories

Iona - Open Sky (2000)

Posted By: v3122
Iona - Open Sky (2000)

Iona - Open Sky (2000)
EAC Rip | Flac(Image) + Cue + Log & iPod M4A(Tracks) & MP3 CBR 320Kbps
Alliance Music, 1901772 | ~ 468 or 473 or 180 Mb | Scans Included
Progressive Rock / Progressive Folk

Iona's seventh album brings more of their patented progressive layered instrumentals and ambient respites, both seasoned by uilleann pipes, whistles, and other folk instruments. Unlike previous albums, however, Open Sky's instrumental passages possess more drive and body than before. It wasn't uncommon for such segments to continue vapidly for five or ten minutes before finally fading to an unsatisfying conclusion. Guitarist Dave Bainbridge makes much better use of his talents and available time (73 minutes) as he incorporates less of the innocuous and more of the inspired playing, akin to Steve Hackett as heard on The Lamb Lies Down on Broadway and Trick of the Tail. In fact the technique employed by drummer Frank Van Essen resembles that of Genesis drummer Phil Collins from that same period. That's not to infer that Iona has abandoned their ambient and noodling proclivities; they've just found a way of making them more tuneful and relevant. The addition of violin (also played by Van Essen) to their lineup has made a difference in that regard. While Joanne Hogg's voice is prominent on several songs, Iona has always had the visage of an all-instrumental band. Her supple voice radiates from and melts into the music in much the same manner as a woodwind or electric keyboard. It's used more for textured than expressive purposes but is, nevertheless, a key identifying feature of this band. This is probably the most focused and well-conceived effort, thus far, by Iona.

by Dave Sleger
Iona - Open Sky (2000)

Iona Biography:

Though Iona is included with Enya and Clannad in the list of contemporary Celtic artists, the Scottish band's influences – including jazz-fusion, prog-rock and ancient Christian themes – are more varied. Named for an island off Scotland's western coast, the group was formed in the late '80s by vocalist Joanne Hogg and multi-instrumentalists David Fitzgerald and Dave Bainbridge.

For Iona's 1990 self-titled debut album included further acquisitions: drummer Terl Bryant, bassist Nick Beggs (former bassist of Kajagoogoo) and several studio musicians – Fiona Davidson (Celtic harp), Peter Whitfield (strings), Troy Donockley (Uillean pipes) and Frank Van Essen (tuned percussion). The album received very little press, even in their home country, though a Dutch network compiled a documentary based on Iona, the band and the island.

Two years later, Iona returned with Book of Kells, and the album was praised by North American critics as well as those of the British Isles. David Fitzgerald left in 1992 to pursue a degree in music and, as a result, Iona lost much of its jazz influences by the following year's Beyond These Shores. The group made up for Fitzgerald's absence, however, by inviting Robert Fripp to guest on the album. A contract with England's Alliance Music led to 1995's Journey into the Morn; the album was released early the following year in the U.S. and Canada. Fitzgerald returned to active recording in 1995, when he released the solo album Columcille. Journey into the Morn followed in 1996.

by John Bush, All Music Guide

––––––––

Иона - прогрессивная кельтская рок-группа из Великобритании, которая была сформирована в конце 1980-х, вокалистка Джоан Хогг и мульти-инструменталисты Дэвид Фитцджеральд и Дэйв Байнбридж.

К тому времени, Иона выпустили свой первый одноименный альбом в 1990, барабанщик Терл Брайант, басист Ник Бегс (бывший басист группы Kajagoogoo), Фиона Дэвидсон на кельтской арфе, Питер Уитфилд по струнам, Трой Donockley на трубах Uillean и ударник Фрэнк Ван Эссен присоединились к группе. Первый альбом Иона сосредоточен главным образом на истории острова Иона, от которого группа получила свое название.

~ LastFm
Iona - Open Sky (2000):

Iona - Open Sky (2000)

Tracklist:

1. Woven Cord (9:28)
2. Wave After Wave (6:16)
3. Open Sky (5:41)
4. Castlerigg (9:27)
5. A Million Stars (3:21)
6. Light Reflected (5:12)
7. Hinba (4:58)
8. Songs of Ascent part 1 (7:58)
9. Songs of Ascent part 2 (9:06)
10. Songs of Ascent part 3 (4:54)
11. Friendship's Door (7:15)

Musicians:

Joanne Hogg - vocals, piano, keyboard
Dave Bainbridge - electric, acoustic, e-bow & 'Indian' guitars, keyboards, programming, piano, bouzouki, autoharp, vocal
Troy Donockley - uillean pipes, low whistles, tin whistle, vocal, acoustic & e-bow guitars, bouzouki, portugese mandola, harmonium
Phil Barker - bass guitars
Frank Van Essen - drums, percussion, acoustic & electric violins, vocal
Guest:
Billy Jackson - celtic harp, clarsach

EAC extraction logfile from 26. February 2005, 15:48 for CD
Iona / Open Sky

Used drive : PLEXTOR CD-R PREMIUM Adapter: 1 ID: 0
Read mode : Secure with NO C2, accurate stream, disable cache
Read offset correction : 30
Overread into Lead-In and Lead-Out : No

Used output format : C:\Program Files\EAC\flac.exe (User Defined Encoder)
128 kBit/s
Additional command line options : -8 -V -T "artist=%a" -T "title=%t" -T "album=%g" -T "date=%y" -T "tracknumber=%n" -T "genre=%m" -T "comment=EAC Flac 1.1.1 -8" %s

Other options :
Fill up missing offset samples with silence : Yes
Delete leading and trailing silent blocks : No
Installed external ASPI interface


Track 1
Filename D:\WAVE\01 - woven cord.wav

Pre-gap length 0:00:02.00

Peak level 99.8 %
Track quality 100.0 %
Test CRC 5205FEE2
Copy CRC 5205FEE2
Copy OK

Track 2
Filename D:\WAVE\02 - wave after wave.wav

Peak level 99.8 %
Track quality 100.0 %
Test CRC 2E54F611
Copy CRC 2E54F611
Copy OK

Track 3
Filename D:\WAVE\03 - open sky.wav

Peak level 99.8 %
Track quality 100.0 %
Test CRC BCD42406
Copy CRC BCD42406
Copy OK

Track 4
Filename D:\WAVE\04 - castlerigg.wav

Pre-gap length 0:00:00.52

Peak level 100.0 %
Track quality 100.0 %
Test CRC 8A2CAB2B
Copy CRC 8A2CAB2B
Copy OK

Track 5
Filename D:\WAVE\05 - a million stars.wav

Pre-gap length 0:00:02.50

Peak level 69.9 %
Track quality 99.9 %
Test CRC 4E96E3EA
Copy CRC 4E96E3EA
Copy OK

Track 6
Filename D:\WAVE\06 - light reflected.wav

Peak level 99.8 %
Track quality 100.0 %
Test CRC C0FC5943
Copy CRC C0FC5943
Copy OK

Track 7
Filename D:\WAVE\07 - hinba.wav

Peak level 99.8 %
Track quality 100.0 %
Test CRC DE8C7DDF
Copy CRC DE8C7DDF
Copy OK

Track 8
Filename D:\WAVE\08 - songs of ascent (part 1).wav

Peak level 99.8 %
Track quality 100.0 %
Test CRC 8D26DAAC
Copy CRC 8D26DAAC
Copy OK

Track 9
Filename D:\WAVE\09 - songs of ascent (part 2).wav

Peak level 100.0 %
Track quality 100.0 %
Test CRC BB0770B2
Copy CRC BB0770B2
Copy OK

Track 10
Filename D:\WAVE\10 - songs of ascent (part 3).wav

Peak level 99.8 %
Track quality 100.0 %
Test CRC D3CC0B02
Copy CRC D3CC0B02
Copy OK

Track 11
Filename D:\WAVE\11 - friendship's door.wav

Pre-gap length 0:00:00.49

Peak level 99.8 %
Track quality 100.0 %
Test CRC 968D98CC
Copy CRC 968D98CC
Copy OK

No errors occured


End of status report

AUDIOCHECKER v2.0 beta (build 457) - by Dester - opdester@freemail.hu
~~~~~~~~~~~~~~~~~~~~~~~~~~~~~~~~~~
-=== DO NOT EDIT THIS FILE! ===-

Path: …\2000 - Open Sky - flac

1 -=- Iona - Open Sky.flac -=- CDDA (100%)

238981124

foobar2000 1.1.18 / Dynamic Range Meter 1.1.1
log date: 2013-01-22 02:41:34

––––––––––––––––––––––––––––––––––––––––
Analyzed: Iona / Open Sky
––––––––––––––––––––––––––––––––––––––––

DR Peak RMS Duration Track
––––––––––––––––––––––––––––––––––––––––
DR8 -0.01 dB -10.14 dB 9:28 01-woven cord
DR8 -0.01 dB -10.66 dB 6:16 02-wave after wave
DR9 -0.01 dB -12.38 dB 5:42 03-open sky
DR9 0.00 dB -12.13 dB 9:29 04-castlerigg
DR11 -3.10 dB -18.44 dB 3:18 05-a million stars
DR8 -0.01 dB -12.57 dB 5:12 06-light reflected
DR9 -0.01 dB -11.81 dB 4:58 07-hinba
DR9 -0.01 dB -12.79 dB 7:58 08-songs of ascent (part 1)
DR10 0.00 dB -15.30 dB 9:06 09-songs of ascent (part 2)
DR8 -0.01 dB -12.07 dB 4:55 10-songs of ascent (part 3)
DR11 -0.01 dB -14.31 dB 7:14 11-friendship's door
––––––––––––––––––––––––––––––––––––––––

Number of tracks: 11
Official DR value: DR9

Samplerate: 44100 Hz
Channels: 2
Bits per sample: 16
Bitrate: 835 kbps
Codec: FLAC

Iona - Open Sky (2000)

All thanks go to alex752

Download Iona - Open Sky (2000):