Tags
Language
Tags

Irène Schweizer - Chicago Piano Solo (2011)

Posted By: basa005
Irène Schweizer - Chicago Piano Solo (2011)

Irène Schweizer - Chicago Piano Solo (2011)
EAC RIP | APE + CUE + LOG | COVER + BOOK | RAR FILES (3% recovery) | 209 Mb
Classical | Intakt CD 065

Irène Schweizer - Chicago Piano Solo (2011)

Tracklist:
1. So Oder So
2. To the Bottle
3. Heilige Johanna (For B. B.)
4. Togetherness One (First Movement)
5. Stringfever
6. Circle
7. Hüben Ohne Drüben
8. Rag
9. Roots

Irène Schweizer, Piano

With a impeccable white grand piano and a packed house,
the stage was set for a concert hot enough to warm the cold February air. No disappointments, of course. Schweizer played two sets, dense with consideration and bristling with cyclical rhythms, but not overly long. An ideal musical event - the audience was absolutely won over by her and late that night the bar was filled with the kind of afterglow that always indicates something deep has transpired. As an expert improvisor, Schweizer knows that the tricky part is figuring out how these ma-terials, influences and innovations fit together. Like Ellington said, it's a matter of connecting the devices, of finding a way to make the music meaningful by imbuing it with thought. Every phrase Irène played that night seemed to be steered by that kind of intellect, that guiding spirit. Everything working together. Technically, that's the meaning of the word «concert.» Agreement in design or plan. It was one such concert, and for times like that we count our lucky stars.
John Corbett, Chicago


Exact Audio Copy V1.0 beta 2 from 29. April 2011

EAC extraction logfile from 9. November 2011, 15:10

Irene Schweizer / chicago piano solo

Used drive : TSSTcorpCDDVDW SE-S204N Adapter: 2 ID: 0

Read mode : Secure
Utilize accurate stream : Yes
Defeat audio cache : Yes
Make use of C2 pointers : No

Read offset correction : 6
Overread into Lead-In and Lead-Out : No
Fill up missing offset samples with silence : Yes
Delete leading and trailing silent blocks : No
Null samples used in CRC calculations : No
Used interface : Native Win32 interface for Win NT & 2000

Used output format : Internal WAV Routines
Sample format : 44.100 Hz; 16 Bit; Stereo


TOC of the extracted CD

Track | Start | Length | Start sector | End sector
––––––––––––––––––––––––––––-
1 | 0:00.00 | 5:07.62 | 0 | 23086
2 | 5:07.62 | 4:22.00 | 23087 | 42736
3 | 9:29.62 | 9:16.00 | 42737 | 84436
4 | 18:45.62 | 4:41.00 | 84437 | 105511
5 | 23:26.62 | 6:51.00 | 105512 | 136336
6 | 30:17.62 | 7:57.00 | 136337 | 172111
7 | 38:14.62 | 4:19.00 | 172112 | 191536
8 | 42:33.62 | 2:57.00 | 191537 | 204811
9 | 45:30.62 | 5:27.13 | 204812 | 229349


Range status and errors

Selected range

Filename C:\avaxhome\Irene Schweizer - chicago piano solo.wav

Peak level 98.9 %
Extraction speed 6.8 X
Range quality 100.0 %
Copy CRC 0EF30813
Copy OK

No errors occurred


AccurateRip summary

Track 1 accurately ripped (confidence 3) [831E9D63] (AR v1)
Track 2 accurately ripped (confidence 3) [D4C52D43] (AR v1)
Track 3 accurately ripped (confidence 3) [51CCCC2F] (AR v1)
Track 4 accurately ripped (confidence 3) [6A04AEC3] (AR v1)
Track 5 accurately ripped (confidence 3) [0003715E] (AR v1)
Track 6 accurately ripped (confidence 3) [5E4457AD] (AR v1)
Track 7 accurately ripped (confidence 3) [3BAE4151] (AR v1)
Track 8 accurately ripped (confidence 3) [8A1E90E1] (AR v1)
Track 9 accurately ripped (confidence 3) [D4D502E4] (AR v1)

All tracks accurately ripped

End of status report

==== Log checksum 960276891E5BAE8F651BD4ECA4291CF47201574F7E5EADE7764754E1D5D51E69 ====