Tags
Language
Tags

Isabelle Faust - Schoenberg: Violin Concerto; Verklärte Nacht (2020)

Posted By: ArlegZ
Isabelle Faust - Schoenberg: Violin Concerto; Verklärte Nacht (2020)

Isabelle Faust - Schoenberg: Violin Concerto; Verklärte Nacht (2020)
EAC | FLAC | Image (Cue & Log) ~ 278 Mb | Total time: 63:12 | Scans included
Classical | Label: Harmonia Mundi | HMM902341 | Recorded: 2018, 2019

Almost forty years separate Verklärte Nacht (Transfigured Night) from the Violin Concerto - the former still influenced by the idiom of Brahms and Wagner, the latter deriving from the richness of that later period when Schoenberg managed to combine a multiplicity of approaches within his twelve-note system. Between post-Romantic twilight and 'classical' rigor, Isabelle Faust and company offer us an extraordinarily lively interpretation of some of the most remarkable pages in twentieth-century musical literature.

Performer:
Isabelle Faust, violin
Swedish Radio Symphony Orchestra (1-3)
Daniel Harding, conductor (1-3)
Anne Katharina Schreiber, violin (4-8)
Antoine Tamestit, viola (4-8)
Danusha Waskiewicz, viola (4-8)
Christian Poltéra, cello (4-8)
Jean-Guihen Queyras, cello (4-8)

Track List:
Violin Concerto, Op. 36
01. I. Poco allegro
02. II. Andante graciozo
03. III. Allegro
Verklärte Nacht, Op. 4
04. I. Sehr langsam
05. II. Breiter
06. III. Schwer betont
07. IV. Sehr breit und langsam
08. V. Sehr ruhig


Exact Audio Copy V1.5 from 20. February 2020

EAC extraction logfile from 31. October 2020, 0:33

Isabelle Faust, Swedish Radio Symphony Orchestra, Daniel Harding / Schoenberg - Violin Concerto; Verklärte Nacht

Used drive : ASUS SDRW-08U7M-U Adapter: 1 ID: 0

Read mode : Secure
Utilize accurate stream : Yes
Defeat audio cache : Yes
Make use of C2 pointers : No

Read offset correction : 6
Overread into Lead-In and Lead-Out : No
Fill up missing offset samples with silence : Yes
Delete leading and trailing silent blocks : No
Null samples used in CRC calculations : Yes
Used interface : Native Win32 interface for Win NT & 2000

Used output format : User Defined Encoder
Selected bitrate : 128 kBit/s
Quality : High
Add ID3 tag : No
Command line compressor : C:\Program Files (x86)\Exact Audio Copy\Flac\flac.exe
Additional command line options : -V -8 -T "Date=%year%" -T "Genre=%genre%" %source%


TOC of the extracted CD

Track | Start | Length | Start sector | End sector
––––––––––––––––––––––––––––-
1 | 0:00.00 | 13:21.63 | 0 | 60137
2 | 13:21.63 | 9:10.56 | 60138 | 101443
3 | 22:32.44 | 12:28.51 | 101444 | 157594
4 | 35:01.20 | 6:10.32 | 157595 | 185376
5 | 41:11.52 | 5:59.66 | 185377 | 212367
6 | 47:11.43 | 2:17.64 | 212368 | 222706
7 | 49:29.32 | 9:30.60 | 222707 | 265516
8 | 59:00.17 | 4:10.42 | 265517 | 284308


Range status and errors

Selected range

Filename C:\temp\HMM902341 - Schoenberg - Violin Concerto; Verklarte Nacht - 2020\Schoenberg - Violin Concerto; Verklarte Nacht.wav

Peak level 96.9 %
Extraction speed 4.6 X
Range quality 99.9 %
Test CRC E6292174
Copy CRC E6292174
Copy OK

No errors occurred


AccurateRip summary

Track 1 accurately ripped (confidence 10) [45F57E72] (AR v2)
Track 2 accurately ripped (confidence 10) [AC29C4FD] (AR v2)
Track 3 accurately ripped (confidence 10) [A89C5195] (AR v2)
Track 4 accurately ripped (confidence 10) [28A5F17D] (AR v2)
Track 5 accurately ripped (confidence 10) [E2178271] (AR v2)
Track 6 accurately ripped (confidence 10) [5A4BEE50] (AR v2)
Track 7 accurately ripped (confidence 10) [566B26EA] (AR v2)
Track 8 accurately ripped (confidence 10) [A6062B1D] (AR v2)

All tracks accurately ripped

End of status report

==== Log checksum FB2E6DA39B94DFC9452D7C61746F69F7D8A1F7A404BF387318B5094C0F5E308E ====

Isabelle Faust - Schoenberg: Violin Concerto; Verklärte Nacht (2020)

Thanks to the original releaser