Tags
Language
Tags

Ivan Pařík, Sinfonietta Praha - Josef Mysliveček: Abramo ed Isacco (1995)

Posted By: ArlegZ
Ivan Pařík, Sinfonietta Praha - Josef Mysliveček: Abramo ed Isacco (1995)

Ivan Pařík, Sinfonietta Praha - Josef Mysliveček: Abramo ed Isacco (1995)
EAC | FLAC | Tracks (Cue & Log) ~ 648 Mb | Total time: 142:01 | Scans included
Classical | Label: Supraphon | # SU 3209-2 232 | Recorded: 1991

A few brush strokes have come to define the otherwise obscure 18th-century composer later known as 'Il Divino Boemo', or the Divine Bohemian: Josef Myslivecek. He was a close friend of Mozart and a musical influence on him. He was one of the most celebrated opera composers in Italy in the 1770s.
Myslivecek’s music has its own merits. It is sprightly, modestly inventive, melodically pleasing. Just as much, it provides a slice of context for the works of Mozart, a composer of truly divine spark whose friendship with Myslivecek is one of the more touching stories in classical music. ‘He was unquestionably one of the greatest models for the young Mozart in composition, and he had a close personal relationship with Mozart that was unique’, said Daniel E. Freeman, a lecturer in music at the University of Minnesota [who wrote the] biography of Myslivecek . ‘There is no other composer in his entire life’, Mr. Freeman said, for whom Mozart ‘expressed such affection’. The Mozart family mentioned Myslivecek about 40 times in correspondence, which is the source of most of the personal information about him. Yet he has been given short shrift, Mr. Freeman contends, because relatively few scholars read Czech and because of German and Austrian ‘snobbery’ toward Bohemian musical subjects. ‘Mozart scholarship simply buried him for these reasons’, Mr. Freeman wrote in an e-mail message. Myslivecek went to Venice to learn opera composing. It was where the big money and fame lay.
Sometime late in the 1770s things soured for Myslivecek. Two of his operas were failures, and his health declined. Some musicologists suggest that his popularity dipped because he clung to the somber, formulaic opera seria style, which was coming to seem old fashioned.
In 1770, while Myslivecek was in his prime, he took up lodging at an inn in Bologna to prepare an opera there. A 14-year-old musical prodigy and his father checked in during their travels around Italy. The boy was Mozart, and he and Myslivecek struck up a friendship, which was cemented that summer when Mozart returned to the city. The Mozarts and Myslivecek visited each other daily. Their paths crossed again in Verona in 1771. Mozart once used some of Myslivecek’s discarded music paper as a blotter while writing to his mother. Myslivecek supplied the Mozarts with contacts and even promised to secure an opera commission for Mozart in Naples. In return, Mr. Freeman said, Leopold Mozart felt obliged to procure Myslivecek commissions from the archbishop of Salzburg. When Myslivecek failed to deliver on the Naples commission, Leopold was stung. ‘It destroyed the friendship, and deservedly so’, Mr. Freeman said. ‘He actually bamboozled Leopold. He kept them strung along for months with this promise of a commission’. But the young Mozart remained a true friend. He showed his affection in a 1777 letter to his father, describing a visit to Myslivecek at a hospital in Munich after a doctor had done severe damage to Myslivecek’s nose in trying to remove disfiguring growths resulting from tertiary syphilis. Mozart’s father had urged him to stay away, probably because of the moral taint of the disease. ‘Was I to know that Myslivecek, so good a friend of mine, was in a town, even in a corner of the world where I was, and was I not to see him, to speak to him?’ Mozart wrote. ‘Impossible’. So he went, and they met in the hospital garden. ‘When he came up to me’, Mozart wrote, ‘I took him by his hand and he took mine, in friendship. Just look, he said, how unfortunate I am! His words and his appearance, which Papa knows already from earlier descriptions, touched me so deeply that I couldn’t say anything, except, half crying: ‘My dear friend, I feel for you with all my heart’. Mozart added, ‘If it were not for his face, he would be the same old Myslivecek, full of fire, spirit and life, a little thin, of course, but otherwise the same excellent cheerful fellow’. Mozart admired Myslivecek’s music as well as his spirit.
Extracting contemporary influences on Mozart has been a major subject of scholarship for more than a century, with varying degrees of significance placed on his assimilation of the music of others as he constantly traveled around Europe in the years before he settled in Vienna, in 1781. ‘Mozart was indeed a master imitator, capable of working in a large variety of styles’, Maynard Solomon writes in his biography MOZART: A LIFE. It was a skill Mozart was proud of. In Myslivecek, Mozart found a model of the Italianate style and its graceful melodies and elegant rhythms. He borrowed ideas from Myslivecek’s works for his first opera seria, MITRIDATE, and themes for early symphonies of his own. He arranged a Myslivecek aria, which became the popular ‘Ridente la calma’, and was for a time considered the composer of Myslivecek’s oratorio ABRAMO ED ISACCO.
– Daniel J. Wakin

Performer:
Abramo - Vladimír Doležal, tenor
Isacco - Tatiana Korovina, soprano
Sara - Hye Jin Kim, contralto
Gamari - Ivana Czáková, vocal
Gamari (38, 39) - Ivan Kusnjer, baritone
Angelo - Victoria Luchianez, soprano
Kühn Mixed Chorus
Sinfonietta Praha
Conductor - Ivan Pařík

Track List:
Josef Mysliveček (1737-1781)
CD1:
Parte prima
01. 1. Ouverture
02. 2. Recitativo: Non più, figlio (Abramo e Isacco)
03. 3. Aria: Ah se macchiar quest' anima (Isacco)
04. 4. Recitativo: E come, e con quai voci (Abramo, Angelo)
05. 5. Aria: Quell' innocente figlio Andante grazioso (Angelo)
06. 6. Recitativo: Eterno Dio! (Abramo)
07. 7a. Recitativo: Servi, pastori, olà (Gamari, Abramo, Sara e pastori)
08. 7b. Recitativo accompagnato: E il padre l' offrirà di sua man (Abramo)
09. 8. Aria: Datti pace, e più serena (Abramo)
10. 9a. Recitativo: Dunque fra pochi istanti (Sara, Isacco, Gamari e pastori)
11. 9b. Recitativo accompagnato: Gamari, che sarà? (Isacco, Sara)
12. 10. Aria: Madre, amico, ah non Piangete! (Isacco)
13. 11. Recitativo: Madre, se pur tal nome (Gamari, Sara e pastori)
14. 12. Aria: Sì, ne' tormenti istessi t' adoro (Sara)
15. 13. Recitativo: Andiam, pastori (Gamari e pastori)
16. 14. Aria: Siam passagieri erranti (Gamari)
17. 15. Recitativo: Sara! Isacco dov'è? (Abramo, Sara, Isacco)
18. 16. Tercetto: Lascia che un baccio (Isacco, Sara, Abramo)
19. 14a. Coro di pastori: O figlia d'umiltà, d'ogni virtude
CD2:
Parte seconda
01. 17. Recitativo: Chi per pietà mi dice (Sara poi pastori)
02. 18. Aria: Deh parlate, che forse tascendo (Sara)
03. 19. Recitativo: De' cenni tuoi … Il sacrifizio io credo (Gamari e detti)
04. 20. Aria: Dal gran peso ogni momento io (Gamari)
05. 21. Recitativo: Seguimi, o figlio (Abramo, Isacco)
06. 22a. La Marcia
07. 23. Recitativo: La vittima son io (Isacco, Abramo)
08. 22b. La Marcia da capo
09. 24. Recitativo: Abramo, Abramo! (Angelo, Abramo, Isacco)
10. 25. Rondo: Veggo oh Dio nel cenno espresso (Isacco)
11. 26. Recitativo: Deh per pietà non ricercar (Sara, Gamari, Isacco, Abramo)
12. 27. Aria: Entra l' uomo, allor che nasce (Abramo)
13. 28. Recitativo: Già torna a respirar (Gamari, Sara, Abramo, Isacco)
14. 29. Recitativo: La vittima mancava (Isacco)
15. 30. Aria: Sperai le sue ritorte, quei colpi (Isacco)
16. 31. Recitativo: Felice Abram, che sì gran Prove (Gamari, Sara)
17. 32. Aria: Sian are i nostri petti (Sara)
18. 33. Recitativo: Tacete. Apresi il cielo (Abramo, Angelo)
19. 34. Aria: Né di felici quel germe altero (Angelo)
20. 35. Recitativo: Udisti, Abram … Onnipotente Dio (Sara, Isacco, Abramo)
21. 36. Coro: Tanti secoli innanzi dunque in Ciel
22. 37/12. Aria Sara
23. 38/14. Aria Gamari
24. 39/20. Aria Gamari


Exact Audio Copy V1.5 from 20. February 2020

EAC extraction logfile from 11. August 2021, 1:53

Josef Myslivecek / Abramo e Isacco - parte prima

Used drive : TSSTcorpCDDVDW SE-208DB Adapter: 1 ID: 1

Read mode : Secure
Utilize accurate stream : Yes
Defeat audio cache : Yes
Make use of C2 pointers : No

Read offset correction : 6
Overread into Lead-In and Lead-Out : No
Fill up missing offset samples with silence : Yes
Delete leading and trailing silent blocks : No
Null samples used in CRC calculations : Yes
Used interface : Native Win32 interface for Win NT & 2000
Gap handling : Appended to previous track

Used output format : User Defined Encoder
Selected bitrate : 1024 kBit/s
Quality : High
Add ID3 tag : No
Command line compressor : C:\Program Files (x86)\Exact Audio Copy\FLAC\FLAC.EXE
Additional command line options : -6 -V -T "ARTIST=%artist%" -T "TITLE=%title%" -T "ALBUM=%albumtitle%" -T "DATE=%year%" -T "TRACKNUMBER=%tracknr%" -T "GENRE=%genre%" -T "COMMENT=%comment%" -T "BAND=%albuminterpret%" -T "ALBUMARTIST=%albuminterpret%" -T "COMPOSER=%composer%" %haslyrics%–tag-from-file=LYRICS="%lyricsfile%"%haslyrics% -T "DISCNUMBER=%cdnumber%" -T "TOTALDISCS=%totalcds%" -T "TOTALTRACKS=%numtracks%" %hascover%–picture="%coverfile%"%hascover% %source% -o %dest% -T "RIPPER=The Brahmsian"


TOC of the extracted CD

Track | Start | Length | Start sector | End sector
––––––––––––––––––––––––––––-
1 | 0:00.32 | 7:37.33 | 32 | 34339
2 | 7:37.65 | 2:33.10 | 34340 | 45824
3 | 10:11.00 | 5:27.72 | 45825 | 70421
4 | 15:38.72 | 2:00.20 | 70422 | 79441
5 | 17:39.17 | 6:48.33 | 79442 | 110074
6 | 24:27.50 | 3:17.07 | 110075 | 124856
7 | 27:44.57 | 3:00.43 | 124857 | 138399
8 | 30:45.25 | 2:32.02 | 138400 | 149801
9 | 33:17.27 | 7:33.03 | 149802 | 183779
10 | 40:50.30 | 1:03.52 | 183780 | 188556
11 | 41:54.07 | 1:41.33 | 188557 | 196164
12 | 43:35.40 | 5:17.42 | 196165 | 219981
13 | 48:53.07 | 1:13.60 | 219982 | 225516
14 | 50:06.67 | 5:48.25 | 225517 | 251641
15 | 55:55.17 | 0:56.33 | 251642 | 255874
16 | 56:51.50 | 5:23.20 | 255875 | 280119
17 | 62:14.70 | 0:38.45 | 280120 | 283014
18 | 62:53.40 | 5:44.17 | 283015 | 308831
19 | 68:37.57 | 2:47.20 | 308832 | 321376


Track 1

Filename C:\EAC Rips\Abramo Ed Isacco 1\01. Josef Myslivecek - Ouverture.wav

Pre-gap length 0:00:02.32

Peak level 82.3 %
Extraction speed 1.4 X
Track quality 100.0 %
Test CRC FDBCF08A
Copy CRC FDBCF08A
Accurately ripped (confidence 2) [B320314B] (AR v2)
Copy OK

Track 2

Filename C:\EAC Rips\Abramo Ed Isacco 1\02. Josef Myslivecek - Abramo e Isacco.wav

Peak level 32.4 %
Extraction speed 1.3 X
Track quality 100.0 %
Test CRC C4CF6E5B
Copy CRC C4CF6E5B
Accurately ripped (confidence 2) [74D86DAB] (AR v2)
Copy OK

Track 3

Filename C:\EAC Rips\Abramo Ed Isacco 1\03. Josef Myslivecek - Aria Isacco.wav

Peak level 82.9 %
Extraction speed 1.6 X
Track quality 100.0 %
Test CRC 97E1550C
Copy CRC 97E1550C
Accurately ripped (confidence 2) [686FCA4C] (AR v2)
Copy OK

Track 4

Filename C:\EAC Rips\Abramo Ed Isacco 1\04. Josef Myslivecek - Abramo, Angelo.wav

Peak level 35.7 %
Extraction speed 1.4 X
Track quality 100.0 %
Test CRC 0E1152AA
Copy CRC 0E1152AA
Accurately ripped (confidence 1) [51AF651B] (AR v2)
Copy OK

Track 5

Filename C:\EAC Rips\Abramo Ed Isacco 1\05. Josef Myslivecek - Aria Angelo.wav

Peak level 77.6 %
Extraction speed 1.8 X
Track quality 100.0 %
Test CRC 4E0BEBC3
Copy CRC 4E0BEBC3
Accurately ripped (confidence 1) [4EEFEC60] (AR v2)
Copy OK

Track 6

Filename C:\EAC Rips\Abramo Ed Isacco 1\06. Josef Myslivecek - Abramo.wav

Peak level 67.0 %
Extraction speed 1.8 X
Track quality 100.0 %
Test CRC 9FE25942
Copy CRC 9FE25942
Accurately ripped (confidence 2) [A3653548] (AR v2)
Copy OK

Track 7

Filename C:\EAC Rips\Abramo Ed Isacco 1\07. Josef Myslivecek - Gamari, Abramo, Sara (e pastori).wav

Peak level 54.3 %
Extraction speed 1.5 X
Track quality 99.9 %
Test CRC 551288A1
Copy CRC 551288A1
Accurately ripped (confidence 2) [A74E4078] (AR v2)
Copy OK

Track 8

Filename C:\EAC Rips\Abramo Ed Isacco 1\08. Josef Myslivecek - Abramo.wav

Peak level 49.7 %
Extraction speed 1.5 X
Track quality 99.9 %
Test CRC 0B4B0602
Copy CRC 0B4B0602
Accurately ripped (confidence 2) [CFA6714D] (AR v2)
Copy OK

Track 9

Filename C:\EAC Rips\Abramo Ed Isacco 1\09. Josef Myslivecek - Aria Abramo.wav

Peak level 57.6 %
Extraction speed 2.2 X
Track quality 100.0 %
Test CRC F02AA676
Copy CRC F02AA676
Accurately ripped (confidence 2) [A74477F1] (AR v2)
Copy OK

Track 10

Filename C:\EAC Rips\Abramo Ed Isacco 1\10. Josef Myslivecek - Sara, Isacco, Gamari (e pastori).wav

Peak level 74.9 %
Extraction speed 1.5 X
Track quality 100.0 %
Test CRC 844D4F10
Copy CRC 844D4F10
Accurately ripped (confidence 2) [71BEB5A6] (AR v2)
Copy OK

Track 11

Filename C:\EAC Rips\Abramo Ed Isacco 1\11. Josef Myslivecek - Isacco, Sara.wav

Peak level 45.3 %
Extraction speed 1.8 X
Track quality 100.0 %
Test CRC 396A8A7F
Copy CRC 396A8A7F
Accurately ripped (confidence 2) [12B8D8B2] (AR v2)
Copy OK

Track 12

Filename C:\EAC Rips\Abramo Ed Isacco 1\12. Josef Myslivecek - Aria Isacco.wav

Peak level 81.1 %
Extraction speed 2.3 X
Track quality 100.0 %
Test CRC 8013DAF5
Copy CRC 8013DAF5
Accurately ripped (confidence 2) [9AC1418C] (AR v2)
Copy OK

Track 13

Filename C:\EAC Rips\Abramo Ed Isacco 1\13. Josef Myslivecek - Sara, Gamari (e pastori).wav

Peak level 50.2 %
Extraction speed 1.6 X
Track quality 100.0 %
Test CRC CE1C9903
Copy CRC CE1C9903
Accurately ripped (confidence 2) [33305D38] (AR v2)
Copy OK

Track 14

Filename C:\EAC Rips\Abramo Ed Isacco 1\14. Josef Myslivecek - Aria Sara.wav

Peak level 76.8 %
Extraction speed 2.4 X
Track quality 100.0 %
Test CRC 311708AE
Copy CRC 311708AE
Accurately ripped (confidence 1) [CC9EACED] (AR v2)
Copy OK

Track 15

Filename C:\EAC Rips\Abramo Ed Isacco 1\15. Josef Myslivecek - Gamari (e pastori).wav

Peak level 35.7 %
Extraction speed 1.1 X
Track quality 99.8 %
Test CRC 8A9D23E7
Copy CRC 8A9D23E7
Accurately ripped (confidence 2) [2AE586B4] (AR v2)
Copy OK

Track 16

Filename C:\EAC Rips\Abramo Ed Isacco 1\16. Josef Myslivecek - Aria Gamari.wav

Peak level 76.9 %
Extraction speed 2.5 X
Track quality 100.0 %
Test CRC AA980C9B
Copy CRC AA980C9B
Accurately ripped (confidence 2) [C0AF07E5] (AR v2)
Copy OK

Track 17

Filename C:\EAC Rips\Abramo Ed Isacco 1\17. Josef Myslivecek - Abramo, Sara, Isacco.wav

Peak level 48.9 %
Extraction speed 1.3 X
Track quality 100.0 %
Test CRC FBC41205
Copy CRC FBC41205
Accurately ripped (confidence 2) [30253CA8] (AR v2)
Copy OK

Track 18

Filename C:\EAC Rips\Abramo Ed Isacco 1\18. Josef Myslivecek - Tercetto. Isocco, Sara, Abramo.wav

Peak level 79.4 %
Extraction speed 2.6 X
Track quality 100.0 %
Test CRC DDD319BF
Copy CRC DDD319BF
Accurately ripped (confidence 2) [0869B4D6] (AR v2)
Copy OK

Track 19

Filename C:\EAC Rips\Abramo Ed Isacco 1\19. Josef Myslivecek - Coro di pastori.wav

Peak level 81.8 %
Extraction speed 2.4 X
Track quality 100.0 %
Test CRC 4A74CD07
Copy CRC 4A74CD07
Accurately ripped (confidence 2) [ED85CF11] (AR v2)
Copy OK


All tracks accurately ripped

No errors occurred

End of status report

–– CUETools DB Plugin V2.1.6

[CTDB TOCID: xnBM0FlYw5Wq1DgbabFkHxhHlWA-] found
Submit result: xnBM0FlYw5Wq1DgbabFkHxhHlWA- has been confirmed
Track | CTDB Status
1 | (3/3) Accurately ripped
2 | (3/3) Accurately ripped
3 | (3/3) Accurately ripped
4 | (3/3) Accurately ripped
5 | (3/3) Accurately ripped
6 | (3/3) Accurately ripped
7 | (3/3) Accurately ripped
8 | (3/3) Accurately ripped
9 | (3/3) Accurately ripped
10 | (3/3) Accurately ripped
11 | (3/3) Accurately ripped
12 | (3/3) Accurately ripped
13 | (3/3) Accurately ripped
14 | (3/3) Accurately ripped
15 | (3/3) Accurately ripped
16 | (3/3) Accurately ripped
17 | (3/3) Accurately ripped
18 | (3/3) Accurately ripped
19 | (3/3) Accurately ripped


==== Log checksum 986D20F357290C5CE92D1415438B7B2C3549886EBE520148F4E47205F25370BD ====


Exact Audio Copy V1.5 from 20. February 2020

EAC extraction logfile from 11. August 2021, 5:49

Josef Myslivecek / Abramo e Isacco - parte seconda

Used drive : TSSTcorpCDDVDW SE-208DB Adapter: 1 ID: 1

Read mode : Secure
Utilize accurate stream : Yes
Defeat audio cache : Yes
Make use of C2 pointers : No

Read offset correction : 6
Overread into Lead-In and Lead-Out : No
Fill up missing offset samples with silence : Yes
Delete leading and trailing silent blocks : No
Null samples used in CRC calculations : Yes
Used interface : Native Win32 interface for Win NT & 2000
Gap handling : Appended to previous track

Used output format : User Defined Encoder
Selected bitrate : 1024 kBit/s
Quality : High
Add ID3 tag : No
Command line compressor : C:\Program Files (x86)\Exact Audio Copy\FLAC\FLAC.EXE
Additional command line options : -6 -V -T "ARTIST=%artist%" -T "TITLE=%title%" -T "ALBUM=%albumtitle%" -T "DATE=%year%" -T "TRACKNUMBER=%tracknr%" -T "GENRE=%genre%" -T "COMMENT=%comment%" -T "BAND=%albuminterpret%" -T "ALBUMARTIST=%albuminterpret%" -T "COMPOSER=%composer%" %haslyrics%–tag-from-file=LYRICS="%lyricsfile%"%haslyrics% -T "DISCNUMBER=%cdnumber%" -T "TOTALDISCS=%totalcds%" -T "TOTALTRACKS=%numtracks%" %hascover%–picture="%coverfile%"%hascover% %source% -o %dest% -T "RIPPER=The Brahmsian"


TOC of the extracted CD

Track | Start | Length | Start sector | End sector
––––––––––––––––––––––––––––-
1 | 0:00.32 | 3:09.68 | 32 | 14274
2 | 3:10.25 | 3:37.10 | 14275 | 30559
3 | 6:47.35 | 0:33.57 | 30560 | 33091
4 | 7:21.17 | 3:13.65 | 33092 | 47631
5 | 10:35.07 | 1:45.25 | 47632 | 55531
6 | 12:20.32 | 1:48.00 | 55532 | 63631
7 | 14:08.32 | 0:37.40 | 63632 | 66446
8 | 14:45.72 | 1:47.65 | 66447 | 74536
9 | 16:33.62 | 1:12.13 | 74537 | 79949
10 | 17:46.00 | 4:02.35 | 79950 | 98134
11 | 21:48.35 | 1:15.37 | 98135 | 103796
12 | 23:03.72 | 6:00.25 | 103797 | 130821
13 | 29:04.22 | 1:30.13 | 130822 | 137584
14 | 30:34.35 | 1:08.40 | 137585 | 142724
15 | 31:43.00 | 7:21.07 | 142725 | 175806
16 | 39:04.07 | 0:59.18 | 175807 | 180249
17 | 40:03.25 | 7:32.40 | 180250 | 214189
18 | 47:35.65 | 0:59.12 | 214190 | 218626
19 | 48:35.02 | 4:24.30 | 218627 | 238456
20 | 52:59.32 | 1:13.60 | 238457 | 243991
21 | 54:13.17 | 2:00.10 | 243992 | 253001
22 | 56:13.27 | 5:35.18 | 253002 | 278144
23 | 61:48.45 | 5:18.05 | 278145 | 301999
24 | 67:06.50 | 3:31.62 | 302000 | 317886


Track 1

Filename C:\EAC Rips\Abramo Ed Isacco 2\01. Josef Myslivecek - Sara (poi pastori).wav

Pre-gap length 0:00:02.32

Peak level 50.1 %
Extraction speed 1.0 X
Track quality 99.9 %
Test CRC A4E153BC
Copy CRC A4E153BC
Accurately ripped (confidence 2) [3F75DE56] (AR v2)
Copy OK

Track 2

Filename C:\EAC Rips\Abramo Ed Isacco 2\02. Josef Myslivecek - Aria Sara.wav

Peak level 82.4 %
Extraction speed 1.1 X
Track quality 99.9 %
Test CRC A012B5E6
Copy CRC A012B5E6
Accurately ripped (confidence 2) [5F285639] (AR v2)
Copy OK

Track 3

Filename C:\EAC Rips\Abramo Ed Isacco 2\03. Josef Myslivecek - Gamari (e detti).wav

Peak level 43.9 %
Extraction speed 0.7 X
Track quality 100.0 %
Test CRC 29C93531
Copy CRC 29C93531
Accurately ripped (confidence 2) [BBC1D6FD] (AR v2)
Copy OK

Track 4

Filename C:\EAC Rips\Abramo Ed Isacco 2\04. Josef Myslivecek - Aria Gamari.wav

Peak level 68.4 %
Extraction speed 1.2 X
Track quality 99.9 %
Test CRC 11B7BF18
Copy CRC 11B7BF18
Accurately ripped (confidence 2) [C710E245] (AR v2)
Copy OK

Track 5

Filename C:\EAC Rips\Abramo Ed Isacco 2\05. Josef Myslivecek - Abramo, Isacco.wav

Peak level 66.8 %
Extraction speed 1.3 X
Track quality 100.0 %
Test CRC 7173C6D7
Copy CRC 7173C6D7
Accurately ripped (confidence 2) [5E91EAEC] (AR v2)
Copy OK

Track 6

Filename C:\EAC Rips\Abramo Ed Isacco 2\06. Josef Myslivecek - La marcia.wav

Peak level 40.2 %
Extraction speed 1.3 X
Track quality 100.0 %
Test CRC 4A355AEF
Copy CRC 4A355AEF
Accurately ripped (confidence 2) [7EA0F860] (AR v2)
Copy OK

Track 7

Filename C:\EAC Rips\Abramo Ed Isacco 2\07. Josef Myslivecek - Abramo, Isacco.wav

Peak level 33.8 %
Extraction speed 0.6 X
Track quality 99.7 %
Test CRC 8F77921A
Copy CRC 8F77921A
Accurately ripped (confidence 2) [92226E0E] (AR v2)
Copy OK

Track 8

Filename C:\EAC Rips\Abramo Ed Isacco 2\08. Josef Myslivecek - La marcia Da Capo.wav

Peak level 40.2 %
Extraction speed 1.1 X
Track quality 99.9 %
Test CRC 19F261F3
Copy CRC 19F261F3
Accurately ripped (confidence 2) [5CBE5880] (AR v2)
Copy OK

Track 9

Filename C:\EAC Rips\Abramo Ed Isacco 2\09. Josef Myslivecek - Angelo, Abramo (Isacco).wav

Peak level 51.3 %
Extraction speed 1.2 X
Track quality 100.0 %
Test CRC D9D1109D
Copy CRC D9D1109D
Accurately ripped (confidence 2) [E6D612FA] (AR v2)
Copy OK

Track 10

Filename C:\EAC Rips\Abramo Ed Isacco 2\10. Josef Myslivecek - Rondo Isacco.wav

Peak level 78.3 %
Extraction speed 1.7 X
Track quality 100.0 %
Test CRC FD640313
Copy CRC FD640313
Accurately ripped (confidence 2) [E3A04B03] (AR v2)
Copy OK

Track 11

Filename C:\EAC Rips\Abramo Ed Isacco 2\11. Josef Myslivecek - Sara, Gamari, Isacco, Abramo.wav

Peak level 59.1 %
Extraction speed 1.3 X
Track quality 100.0 %
Test CRC 5615D45A
Copy CRC 5615D45A
Accurately ripped (confidence 2) [098DFEC5] (AR v2)
Copy OK

Track 12

Filename C:\EAC Rips\Abramo Ed Isacco 2\12. Josef Myslivecek - Aria Abramo.wav

Peak level 83.7 %
Extraction speed 1.9 X
Track quality 100.0 %
Test CRC F1154AE6
Copy CRC F1154AE6
Accurately ripped (confidence 2) [C355F435] (AR v2)
Copy OK

Track 13

Filename C:\EAC Rips\Abramo Ed Isacco 2\13. Josef Myslivecek - Gamari, Sara, Abramo (e Isacco).wav

Peak level 57.1 %
Extraction speed 1.5 X
Track quality 100.0 %
Test CRC E37083F5
Copy CRC E37083F5
Accurately ripped (confidence 2) [1E07FAED] (AR v2)
Copy OK

Track 14

Filename C:\EAC Rips\Abramo Ed Isacco 2\14. Josef Myslivecek - Isacco.wav

Peak level 62.9 %
Extraction speed 1.4 X
Track quality 100.0 %
Test CRC FB166054
Copy CRC FB166054
Accurately ripped (confidence 2) [AF37F2D5] (AR v2)
Copy OK

Track 15

Filename C:\EAC Rips\Abramo Ed Isacco 2\15. Josef Myslivecek - Aria Isacco.wav

Peak level 74.8 %
Extraction speed 2.1 X
Track quality 100.0 %
Test CRC C72633FB
Copy CRC C72633FB
Accurately ripped (confidence 2) [970BF0C2] (AR v2)
Copy OK

Track 16

Filename C:\EAC Rips\Abramo Ed Isacco 2\16. Josef Myslivecek - Gamari, Sara.wav

Peak level 68.4 %
Extraction speed 1.4 X
Track quality 100.0 %
Test CRC 9A775A40
Copy CRC 9A775A40
Accurately ripped (confidence 2) [5D8F3D42] (AR v2)
Copy OK

Track 17

Filename C:\EAC Rips\Abramo Ed Isacco 2\17. Josef Myslivecek - Aria Sara.wav

Peak level 81.2 %
Extraction speed 2.3 X
Track quality 100.0 %
Test CRC E4C0E60C
Copy CRC E4C0E60C
Accurately ripped (confidence 2) [6565194B] (AR v2)
Copy OK

Track 18

Filename C:\EAC Rips\Abramo Ed Isacco 2\18. Josef Myslivecek - Abramo, Angelo.wav

Peak level 43.1 %
Extraction speed 1.5 X
Track quality 100.0 %
Test CRC F45CF93C
Copy CRC F45CF93C
Accurately ripped (confidence 2) [E4ED3079] (AR v2)
Copy OK

Track 19

Filename C:\EAC Rips\Abramo Ed Isacco 2\19. Josef Myslivecek - Aria Angelo.wav

Peak level 81.2 %
Extraction speed 2.3 X
Track quality 100.0 %
Test CRC 24A66877
Copy CRC 24A66877
Accurately ripped (confidence 2) [1C5ECAFD] (AR v2)
Copy OK

Track 20

Filename C:\EAC Rips\Abramo Ed Isacco 2\20. Josef Myslivecek - (Sara, Isacco,) Abramo.wav

Peak level 30.3 %
Extraction speed 1.7 X
Track quality 100.0 %
Test CRC 6389C4B8
Copy CRC 6389C4B8
Accurately ripped (confidence 2) [573DC7E5] (AR v2)
Copy OK

Track 21

Filename C:\EAC Rips\Abramo Ed Isacco 2\21. Josef Myslivecek - Coro.wav

Peak level 77.8 %
Extraction speed 1.6 X
Track quality 99.9 %
Test CRC 4BF7EDBD
Copy CRC 4BF7EDBD
Accurately ripped (confidence 2) [FA75FC51] (AR v2)
Copy OK

Track 22

Filename C:\EAC Rips\Abramo Ed Isacco 2\22. Josef Myslivecek - p. prima-14-Aria Sara.wav

Pre-gap length 0:00:07.45

Peak level 78.3 %
Extraction speed 2.5 X
Track quality 100.0 %
Test CRC E78C2220
Copy CRC E78C2220
Accurately ripped (confidence 2) [D3C8D05B] (AR v2)
Copy OK

Track 23

Filename C:\EAC Rips\Abramo Ed Isacco 2\23. Josef Myslivecek - p. prima-16-Aria Gamari.wav

Pre-gap length 0:00:02.55

Peak level 77.9 %
Extraction speed 2.3 X
Track quality 99.9 %
Test CRC 5E9D1359
Copy CRC 5E9D1359
Accurately ripped (confidence 2) [251A0A46] (AR v2)
Copy OK

Track 24

Filename C:\EAC Rips\Abramo Ed Isacco 2\24. Josef Myslivecek - p. seconda-4-Aria Gamari.wav

Pre-gap length 0:00:03.38

Peak level 77.4 %
Extraction speed 2.1 X
Track quality 99.9 %
Test CRC F40B33E6
Copy CRC F40B33E6
Accurately ripped (confidence 2) [6845C37D] (AR v2)
Copy OK


All tracks accurately ripped

No errors occurred

End of status report

–– CUETools DB Plugin V2.1.6

[CTDB TOCID: bmS6HNv0LH.T8ZsDNZCU0eDtxfk-] found
Submit result: bmS6HNv0LH.T8ZsDNZCU0eDtxfk- has been confirmed
Track | CTDB Status
1 | (3/3) Accurately ripped
2 | (3/3) Accurately ripped
3 | (3/3) Accurately ripped
4 | (3/3) Accurately ripped
5 | (3/3) Accurately ripped
6 | (3/3) Accurately ripped
7 | (3/3) Accurately ripped
8 | (3/3) Accurately ripped
9 | (3/3) Accurately ripped
10 | (3/3) Accurately ripped
11 | (3/3) Accurately ripped
12 | (3/3) Accurately ripped
13 | (3/3) Accurately ripped
14 | (3/3) Accurately ripped
15 | (3/3) Accurately ripped
16 | (3/3) Accurately ripped
17 | (3/3) Accurately ripped
18 | (3/3) Accurately ripped
19 | (3/3) Accurately ripped
20 | (3/3) Accurately ripped
21 | (3/3) Accurately ripped
22 | (3/3) Accurately ripped
23 | (3/3) Accurately ripped
24 | (3/3) Accurately ripped


==== Log checksum 8853686200A4F6EFB2529886B3150BD11669C6B84817B5ED077B5378B5F81330 ====

Ivan Pařík, Sinfonietta Praha - Josef Mysliveček: Abramo ed Isacco (1995)

Thanks to the original releaser