Tags
Language
Tags

Ivor Bolton, Sinfonieorchester Basel - The Secret Fauré II: Orchestral and Concertante Music (2019)

Posted By: ArlegZ
Ivor Bolton, Sinfonieorchester Basel - The Secret Fauré II: Orchestral and Concertante Music (2019)

Ivor Bolton, Sinfonieorchester Basel - The Secret Fauré II: Orchestral and Concertante Music (2019)
EAC | FLAC | Image (Cue & Log) ~ 264 Mb | Total time: 66:35 | Scans included
Classical | Label: Sony Classical | # 19075936402 | Recorded: 2017, 2018

For the album "The Secret Fauré", released in 2018, the Basel Symphony Orchestra under the direction of Principal Conductor Ivor Bolton received fantastic reviews: "The music of Fauré … unfolds its attraction only gradually and very subtly, with a gentle, addictive spell can make." (NDR Kultur) In his new album, the orchestra presents a number of other orchestral and concert works by the French composer, Gabriel Fauré. Most of the recordings are based on the new critical edition of Fauré's works published by Bärenreiter-Verlag, whose score has been edited according to the latest scientific criteria.

Performer:
Axel Schacher, violin
Antoine Lederlin, cello
Oliver Schnyder, piano
Sinfonieorchester Basel
Ivor Bolton, conductor

Track List:
01. Berceuse for Violin and Orchestra, Op. 16
02. Romance for Violin and Orchestra, Op. 28
03. Ballade for Piano and Orchestra, Op. 19
04. Élégie for Cello and Orchestra, Op. 24
05-08. Masques et Bergamasques, Op. 112 (Orchestral Suite)
09. Pavane, Op. 50
10. Allegro from Symphonie en Fa (or Suite d'orchestre), Op. 20


Exact Audio Copy V1.3 from 2. September 2016

EAC extraction logfile from 2. June 2020, 23:43

Sinfonieorchester Basel, Ivor Bolton / The Secret Fauré II

Used drive : ASUS SDRW-08U7M-U Adapter: 1 ID: 0

Read mode : Secure
Utilize accurate stream : Yes
Defeat audio cache : Yes
Make use of C2 pointers : No

Read offset correction : 6
Overread into Lead-In and Lead-Out : No
Fill up missing offset samples with silence : Yes
Delete leading and trailing silent blocks : No
Null samples used in CRC calculations : Yes
Used interface : Native Win32 interface for Win NT & 2000

Used output format : User Defined Encoder
Selected bitrate : 128 kBit/s
Quality : High
Add ID3 tag : No
Command line compressor : C:\Program Files (x86)\Exact Audio Copy\Flac\flac.exe
Additional command line options : -V -8 -T "Date=%year%" -T "Genre=%genre%" %source%


TOC of the extracted CD

Track | Start | Length | Start sector | End sector
––––––––––––––––––––––––––––-
1 | 0:00.00 | 4:19.35 | 0 | 19459
2 | 4:19.35 | 6:51.33 | 19460 | 50317
3 | 11:10.68 | 14:23.48 | 50318 | 115090
4 | 25:34.41 | 7:13.44 | 115091 | 147609
5 | 32:48.10 | 3:47.60 | 147610 | 164694
6 | 36:35.70 | 2:46.18 | 164695 | 177162
7 | 39:22.13 | 3:19.48 | 177163 | 192135
8 | 42:41.61 | 3:49.33 | 192136 | 209343
9 | 46:31.19 | 6:55.09 | 209344 | 240477
10 | 53:26.28 | 13:06.45 | 240478 | 299472


Range status and errors

Selected range

Filename C:\temp\The Secret Faure II - Orchestral and Concertante Music - 2019\The Secret Faure II.wav

Peak level 100.0 %
Extraction speed 5.1 X
Range quality 99.9 %
Test CRC 99131F65
Copy CRC 99131F65
Copy OK

No errors occurred


AccurateRip summary

Track 1 accurately ripped (confidence 1) [44E16F57] (AR v2)
Track 2 accurately ripped (confidence 1) [47DC4FC1] (AR v2)
Track 3 accurately ripped (confidence 1) [1CA0CEF1] (AR v2)
Track 4 accurately ripped (confidence 1) [8E418363] (AR v2)
Track 5 accurately ripped (confidence 1) [57F5313D] (AR v2)
Track 6 accurately ripped (confidence 1) [FAE4A898] (AR v2)
Track 7 accurately ripped (confidence 1) [6485EB0F] (AR v2)
Track 8 accurately ripped (confidence 1) [A5FE3A5E] (AR v2)
Track 9 accurately ripped (confidence 1) [1CE10A94] (AR v2)
Track 10 accurately ripped (confidence 1) [EB2B2948] (AR v2)

All tracks accurately ripped

End of status report

==== Log checksum 81CCA8FA2FC8FB589FCC4F18A409736BD02977A62CBB18F19CADCBFC534F8E70 ====

Ivor Bolton, Sinfonieorchester Basel - The Secret Fauré II: Orchestral and Concertante Music (2019)

Thanks to the original releaser