Subcategories
Please register here if you want to download anything!

If domain in your address bar is different from the list below
PLEASE LEAVE THAT SITE IMMEDIATELY
❗IT'S A DANGEROUS FAKE❗



Spicy Magazines for Men! ;-)

Jose Serebrier/Royal Scottish National Orchestra - Glazunov: Symphony No. 5 - The Seasons (2004) {Warner Classics} **[RE-UP]**

Posted By: TestTickles
Jose Serebrier/Royal Scottish National Orchestra - Glazunov: Symphony No. 5 - The Seasons (2004) {Warner Classics} **[RE-UP]**

Jose Serebrier/Royal Scottish National Orchestra - Glazunov: Symphony No. 5 - The Seasons (2004) {Warner Classics}
EAC Rip | FLAC with CUE and log | scans | 321 mb
MP3 CBR 320kbps | RAR | 165 mb
Genre: classical

Glazunov: Symphony No. 5 - The Seasons is a 2004 album by the Royal Scottish National Orchestra, conducted by Jose Serebrier. This is a Warner Classics release.

Jose Serebrier/Royal Scottish National Orchestra - Glazunov: Symphony No. 5 - The Seasons (2004) {Warner Classics} **[RE-UP]**

Symphony No.5 In B Flat Major, Op.55
1. I Moderato - Maestoso - Allegro (11:40)
2. II Scherzo: Moderato (4:54)
3. III Andante (9:24)
4. IV Allegro - Maestoso (6:45)

The Seasons, Op.67
Winter

5. Introduction (2:05)
6. Scene (1:28)
7. Variation 1: Frost (0:53)
8. Variation 2: Ice (1:10)
9. Variation 3: Hail (0:51)
10. Variation 4: Snow (2:58)

Spring
11. Spring (5:08)


Summer
12. Scene (2:05)
13. Waltz Of The Cornflowers And Poppies (2:01)
14. Barcarolle (2:15)
15. Variation: The Ear Of Corn (1:07)
16. Coda (3:47)

Autumn
17. Bacchanale - Entries Of The Seasons (4:06)
18. Petit Adagio (4:18)
19. Variation: The Satyr - Les Bacchantes - Les Satyres Et Faunes - Fall Of Dead Leaves - Apothéose (3:26)

Produced and edited by Tim Oldham
Engineered by Jean-Martial Golaz & Jean Chatauret
Recorded at Henry Wood Hall, Glasgow, Scotland 6-8 January 2004

Jose Serebrier/Royal Scottish National Orchestra - Glazunov: Symphony No. 5 - The Seasons (2004) {Warner Classics} **[RE-UP]**


Exact Audio Copy V1.1 from 23. June 2015

EAC extraction logfile from 1. November 2016, 13:21

Jose Serebrier/Royal Scottish National Orchestra / Glazunov: Symphony No. 5/The Seasons

Used drive : TEAC DVD-ROM DV-28SW Adapter: 1 ID: 0

Read mode : Secure
Utilize accurate stream : Yes
Defeat audio cache : Yes
Make use of C2 pointers : No

Read offset correction : 6
Overread into Lead-In and Lead-Out : No
Fill up missing offset samples with silence : Yes
Delete leading and trailing silent blocks : No
Null samples used in CRC calculations : Yes
Used interface : Native Win32 interface for Win NT & 2000
Gap handling : Appended to previous track

Used output format : Internal WAV Routines
Sample format : 44.100 Hz; 16 Bit; Stereo


TOC of the extracted CD

Track | Start | Length | Start sector | End sector
––––––––––––––––––––––––––––-
1 | 0:00.00 | 11:39.69 | 0 | 52493
2 | 11:39.69 | 4:53.53 | 52494 | 74521
3 | 16:33.47 | 9:23.57 | 74522 | 116803
4 | 25:57.29 | 6:54.64 | 116804 | 147917
5 | 32:52.18 | 2:04.71 | 147918 | 157288
6 | 34:57.14 | 1:27.30 | 157289 | 163843
7 | 36:24.44 | 0:52.38 | 163844 | 167781
8 | 37:17.07 | 1:09.25 | 167782 | 172981
9 | 38:26.32 | 0:51.13 | 172982 | 176819
10 | 39:17.45 | 2:57.39 | 176820 | 190133
11 | 42:15.09 | 5:07.73 | 190134 | 213231
12 | 47:23.07 | 2:05.01 | 213232 | 222607
13 | 49:28.08 | 2:01.22 | 222608 | 231704
14 | 51:29.30 | 2:15.05 | 231705 | 241834
15 | 53:44.35 | 1:06.63 | 241835 | 246847
16 | 54:51.23 | 3:46.63 | 246848 | 263860
17 | 58:38.11 | 4:06.22 | 263861 | 282332
18 | 62:44.33 | 4:17.67 | 282333 | 301674
19 | 67:02.25 | 3:26.14 | 301675 | 317138


Track 1

Filename C:\My Documents\My FLAC\Jose Serebrier, Royal Scottish National Orchestra - Glazunov Symphony No. 5, The Seasons (2004) [FLAC] {Warner Classics}\01 - Symphony No.5 in B flat major, Op.55 - I. Moderato - Maestoso - Allegro.wav

Pre-gap length 0:00:02.00

Peak level 87.0 %
Extraction speed 2.4 X
Track quality 100.0 %
Test CRC 879A9677
Copy CRC 879A9677
Accurately ripped (confidence 2) [C6F0C8C9] (AR v2)
Copy OK

Track 2

Filename C:\My Documents\My FLAC\Jose Serebrier, Royal Scottish National Orchestra - Glazunov Symphony No. 5, The Seasons (2004) [FLAC] {Warner Classics}\02 - Symphony No.5 in B flat major, Op.55 - II. Scherzo- Moderato.wav

Peak level 48.4 %
Extraction speed 3.6 X
Track quality 100.0 %
Test CRC 5C08475F
Copy CRC 5C08475F
Accurately ripped (confidence 2) [37109A89] (AR v2)
Copy OK

Track 3

Filename C:\My Documents\My FLAC\Jose Serebrier, Royal Scottish National Orchestra - Glazunov Symphony No. 5, The Seasons (2004) [FLAC] {Warner Classics}\03 - Symphony No.5 in B flat major, Op.55 - III. Andante.wav

Peak level 61.7 %
Extraction speed 3.9 X
Track quality 99.9 %
Test CRC 80936818
Copy CRC 80936818
Accurately ripped (confidence 2) [1BF7F068] (AR v2)
Copy OK

Track 4

Filename C:\My Documents\My FLAC\Jose Serebrier, Royal Scottish National Orchestra - Glazunov Symphony No. 5, The Seasons (2004) [FLAC] {Warner Classics}\04 - Symphony No.5 in B flat major, Op.55 - IV. Allegro - Maestoso.wav

Peak level 100.0 %
Extraction speed 4.6 X
Track quality 100.0 %
Test CRC 3F7E2A2B
Copy CRC 3F7E2A2B
Accurately ripped (confidence 2) [7217C0E7] (AR v2)
Copy OK

Track 5

Filename C:\My Documents\My FLAC\Jose Serebrier, Royal Scottish National Orchestra - Glazunov Symphony No. 5, The Seasons (2004) [FLAC] {Warner Classics}\05 - The Seasons, Op.67 - Winter, Introduction.wav

Pre-gap length 0:00:09.64

Peak level 68.4 %
Extraction speed 4.0 X
Track quality 100.0 %
Test CRC A5128978
Copy CRC A5128978
Accurately ripped (confidence 2) [F23E1447] (AR v2)
Copy OK

Track 6

Filename C:\My Documents\My FLAC\Jose Serebrier, Royal Scottish National Orchestra - Glazunov Symphony No. 5, The Seasons (2004) [FLAC] {Warner Classics}\06 - The Seasons, Op.67 - Winter, Scene.wav

Peak level 37.4 %
Extraction speed 3.6 X
Track quality 100.0 %
Test CRC D564635D
Copy CRC D564635D
Accurately ripped (confidence 2) [6A3D5AAF] (AR v2)
Copy OK

Track 7

Filename C:\My Documents\My FLAC\Jose Serebrier, Royal Scottish National Orchestra - Glazunov Symphony No. 5, The Seasons (2004) [FLAC] {Warner Classics}\07 - The Seasons, Op.67 - Winter, Variation 1- Frost.wav

Peak level 36.7 %
Extraction speed 3.1 X
Track quality 100.0 %
Test CRC C0A200EA
Copy CRC C0A200EA
Accurately ripped (confidence 2) [B3B4FCF8] (AR v2)
Copy OK

Track 8

Filename C:\My Documents\My FLAC\Jose Serebrier, Royal Scottish National Orchestra - Glazunov Symphony No. 5, The Seasons (2004) [FLAC] {Warner Classics}\08 - The Seasons, Op.67 - Winter, Variation 2- Ice.wav

Peak level 28.6 %
Extraction speed 3.4 X
Track quality 100.0 %
Test CRC D60214C3
Copy CRC D60214C3
Accurately ripped (confidence 2) [3897B011] (AR v2)
Copy OK

Track 9

Filename C:\My Documents\My FLAC\Jose Serebrier, Royal Scottish National Orchestra - Glazunov Symphony No. 5, The Seasons (2004) [FLAC] {Warner Classics}\09 - The Seasons, Op.67 - Winter, Variation 3- Hail.wav

Peak level 58.5 %
Extraction speed 3.1 X
Track quality 100.0 %
Test CRC B5BB6A38
Copy CRC B5BB6A38
Accurately ripped (confidence 2) [67EE7829] (AR v2)
Copy OK

Track 10

Filename C:\My Documents\My FLAC\Jose Serebrier, Royal Scottish National Orchestra - Glazunov Symphony No. 5, The Seasons (2004) [FLAC] {Warner Classics}\10 - The Seasons, Op.67 - Winter, Variation 4- Snow.wav

Peak level 32.5 %
Extraction speed 4.5 X
Track quality 100.0 %
Test CRC CA593F6A
Copy CRC CA593F6A
Accurately ripped (confidence 2) [4A945ACB] (AR v2)
Copy OK

Track 11

Filename C:\My Documents\My FLAC\Jose Serebrier, Royal Scottish National Orchestra - Glazunov Symphony No. 5, The Seasons (2004) [FLAC] {Warner Classics}\11 - The Seasons, Op.67 - Spring.wav

Peak level 41.5 %
Extraction speed 5.1 X
Track quality 100.0 %
Test CRC EB869CE0
Copy CRC EB869CE0
Accurately ripped (confidence 2) [5697B77F] (AR v2)
Copy OK

Track 12

Filename C:\My Documents\My FLAC\Jose Serebrier, Royal Scottish National Orchestra - Glazunov Symphony No. 5, The Seasons (2004) [FLAC] {Warner Classics}\12 - The Seasons, Op.67 - Summer, Scene.wav

Peak level 96.2 %
Extraction speed 4.5 X
Track quality 100.0 %
Test CRC BD64BA2C
Copy CRC BD64BA2C
Accurately ripped (confidence 2) [BEEFB8CA] (AR v2)
Copy OK

Track 13

Filename C:\My Documents\My FLAC\Jose Serebrier, Royal Scottish National Orchestra - Glazunov Symphony No. 5, The Seasons (2004) [FLAC] {Warner Classics}\13 - The Seasons, Op.67 - Summer, Waltz Of The Cornflowers And Poppies.wav

Peak level 95.8 %
Extraction speed 4.5 X
Track quality 100.0 %
Test CRC BA63F52F
Copy CRC BA63F52F
Accurately ripped (confidence 2) [19202325] (AR v2)
Copy OK

Track 14

Filename C:\My Documents\My FLAC\Jose Serebrier, Royal Scottish National Orchestra - Glazunov Symphony No. 5, The Seasons (2004) [FLAC] {Warner Classics}\14 - The Seasons, Op.67 - Summer, Barcarolle.wav

Peak level 50.7 %
Extraction speed 4.6 X
Track quality 100.0 %
Test CRC 54AF25E9
Copy CRC 54AF25E9
Accurately ripped (confidence 2) [E6F11AC1] (AR v2)
Copy OK

Track 15

Filename C:\My Documents\My FLAC\Jose Serebrier, Royal Scottish National Orchestra - Glazunov Symphony No. 5, The Seasons (2004) [FLAC] {Warner Classics}\15 - The Seasons, Op.67 - Summer, Variation- The Ear Of Corn.wav

Peak level 25.8 %
Extraction speed 3.8 X
Track quality 100.0 %
Test CRC 74415489
Copy CRC 74415489
Accurately ripped (confidence 2) [18B8E677] (AR v2)
Copy OK

Track 16

Filename C:\My Documents\My FLAC\Jose Serebrier, Royal Scottish National Orchestra - Glazunov Symphony No. 5, The Seasons (2004) [FLAC] {Warner Classics}\16 - The Seasons, Op.67 - Summer, Coda.wav

Peak level 98.6 %
Extraction speed 0.6 X
Track quality 100.0 %
Test CRC FCC035AB
Copy CRC FCC035AB
Accurately ripped (confidence 2) [B262FA01] (AR v2)
Copy OK

Track 17

Filename C:\My Documents\My FLAC\Jose Serebrier, Royal Scottish National Orchestra - Glazunov Symphony No. 5, The Seasons (2004) [FLAC] {Warner Classics}\17 - The Seasons, Op.67 - Autumn, Bacchanale.wav

Peak level 84.2 %
Extraction speed 4.6 X
Track quality 99.9 %
Test CRC 5523D6DE
Copy CRC 5523D6DE
Accurately ripped (confidence 2) [580A83EF] (AR v2)
Copy OK

Track 18

Filename C:\My Documents\My FLAC\Jose Serebrier, Royal Scottish National Orchestra - Glazunov Symphony No. 5, The Seasons (2004) [FLAC] {Warner Classics}\18 - The Seasons, Op.67 - Autumn, Petit Adagio.wav

Peak level 30.7 %
Extraction speed 5.6 X
Track quality 100.0 %
Test CRC 71B6F8A0
Copy CRC 71B6F8A0
Accurately ripped (confidence 2) [BA6A1D46] (AR v2)
Copy OK

Track 19

Filename C:\My Documents\My FLAC\Jose Serebrier, Royal Scottish National Orchestra - Glazunov Symphony No. 5, The Seasons (2004) [FLAC] {Warner Classics}\19 - The Seasons, Op.67 - Autumn, Variation- The Satyr.wav

Peak level 97.9 %
Extraction speed 4.5 X
Track quality 99.9 %
Test CRC B150EF5D
Copy CRC B150EF5D
Accurately ripped (confidence 2) [A8712B91] (AR v2)
Copy OK


All tracks accurately ripped

No errors occurred

End of status report

–– CUETools DB Plugin V2.1.6

[CTDB TOCID: i1TRK91k0K7uIrJqq6KVzzdjUrQ-] found
Submit result: i1TRK91k0K7uIrJqq6KVzzdjUrQ- has been confirmed
Track | CTDB Status
1 | (30/30) Accurately ripped
2 | (30/30) Accurately ripped
3 | (30/30) Accurately ripped
4 | (30/30) Accurately ripped
5 | (30/30) Accurately ripped
6 | (30/30) Accurately ripped
7 | (30/30) Accurately ripped
8 | (30/30) Accurately ripped
9 | (30/30) Accurately ripped
10 | (30/30) Accurately ripped
11 | (30/30) Accurately ripped
12 | (30/30) Accurately ripped
13 | (30/30) Accurately ripped
14 | (30/30) Accurately ripped
15 | (30/30) Accurately ripped
16 | (30/30) Accurately ripped
17 | (29/30) Accurately ripped
18 | (30/30) Accurately ripped
19 | (30/30) Accurately ripped


==== Log checksum F3B7BB481956621DB068CD577345B589C12175DB6D27089D7B0E28A63F01934A ====


Jose Serebrier/Royal Scottish National Orchestra - Glazunov: Symphony No. 5 - The Seasons (2004) {Warner Classics} **[RE-UP]**