Tags
Language
Tags
June 2024
Su Mo Tu We Th Fr Sa
26 27 28 29 30 31 1
2 3 4 5 6 7 8
9 10 11 12 13 14 15
16 17 18 19 20 21 22
23 24 25 26 27 28 29
30 1 2 3 4 5 6

J.J. Johnson & Kai Winding - Trombone For Two (1956) [Reissue 2007]

Posted By: gribovar
J.J. Johnson & Kai Winding - Trombone For Two (1956) [Reissue 2007]

J.J. Johnson & Kai Winding - Trombone For Two (1956) [Reissue 2007]
EAC Rip | APE (image+.cue+log) - 270 MB | MP3 CBR 320 kbps (LAME 3.93) - 178 MB | Covers (9 MB) included
Genre: Jazz | RAR 3% Rec. | Label: Mosaic Records (MCD-1015)

The J.J. Johnson-Kai Winding quintet became one of the more unlikely successes of the mid-'50s, recording nine albums during their two years of steady collaborations. Their first Columbia LP (there would be five) has such likable songs as "Give Me the Simple Life," "Trombone for Two," "It's Sand Man," "Let's Get Away from It All" and "This Can't Be Love." With pianist Dick Katz, bassist Paul Chambers (who would soon join Miles Davis) and drummer Osie Johnson, the focus is almost entirely on the competitive but complementary trombonists. The results are bop-based but full of surprises, tasteful but not always predictable.
Tracklist:
01. The Whiffenpoof Song
02. Give Me The Simple Life
03. Close As Pages In A Book
04. Turnabout
05. Trombone For Two
06. It's Sand, Man
07. We Too
08. Let's Get Away From It All
09. Goodbye
10. This Can't Be Love
11. You'd Be So Nice To Come Come To (Bonus track)
12. Caribe (Bonus track)
13. Happiness Is A Thing Called Joe (Bonus track)
14. The Song Is You (Bonus track)
15. In The Wee Small Hours Of The Morning (Bonus track)
16. Tromboniums In Motion (Bonus track)
17. How High The Moon (Bonus track)
18. Violets For Your Furs (Bonus track)
19. Too Close For Comfort (Bonus track)
20. 'S Wonderful (Bonus track)

Total time: 01:11:34

Exact Audio Copy V0.99 prebeta 4 from 23. January 2008

Отчёт EAC об извлечении, выполненном 4. января 2010, 14:15

J.J. and Kai / Trombone For Two

Дисковод: Optiarc DVD RW AD-7200A Adapter: 0 ID: 0

Режим чтения : Достоверность
Использование точного потока : Да
Отключение кэша аудио : Да
Использование указателей C2 : Нет

Коррекция смещения при чтении : 48
Способность читать области Lead-in и Lead-out : Нет
Заполнение пропущенных сэмплов тишиной : Да
Удаление блоков с тишиной в начале и конце : Нет
При вычислениях CRC использовались нулевые сэмплы : Да
Интерфейс : Встроенный Win32-интерфейс для Win NT/2000

Выходной формат : Внутренние WAV-операции
Формат сэмплов : 44.100 Гц; 16 бит; стерео


TOC извлечённого CD

Трек | Старт | Длительность | Начальный сектор | Конечный сектор
––––––––––––––––––––––––––––––––––-
1 | 0:00.00 | 3:19.41 | 0 | 14965
2 | 3:19.41 | 3:54.09 | 14966 | 32524
3 | 7:13.50 | 3:40.05 | 32525 | 49029
4 | 10:53.55 | 3:57.60 | 49030 | 66864
5 | 14:51.40 | 3:17.59 | 66865 | 81698
6 | 18:09.24 | 4:02.54 | 81699 | 99902
7 | 22:12.03 | 4:07.35 | 99903 | 118462
8 | 26:19.38 | 2:55.70 | 118463 | 131657
9 | 29:15.33 | 2:49.35 | 131658 | 144367
10 | 32:04.68 | 4:07.17 | 144368 | 162909
11 | 36:12.10 | 3:30.27 | 162910 | 178686
12 | 39:42.37 | 2:41.32 | 178687 | 190793
13 | 42:23.69 | 3:40.11 | 190794 | 207304
14 | 46:04.05 | 4:02.03 | 207305 | 225457
15 | 50:06.08 | 4:18.48 | 225458 | 244855
16 | 54:24.56 | 3:40.57 | 244856 | 261412
17 | 58:05.38 | 2:33.37 | 261413 | 272924
18 | 60:39.00 | 4:20.35 | 272925 | 292459
19 | 64:59.35 | 3:26.07 | 292460 | 307916
20 | 68:25.42 | 3:08.34 | 307917 | 322050


Характеристики диапазона извлечения и сообщения об ошибках

Выбранный диапазон

Имя файла E:\ForTorrents\Temp\J.J. and Kai - Trombone For Two.wav

Пиковый уровень 100.0 %
Качество диапазона 100.0 %
CRC теста 6ABE920A
CRC копии 6ABE920A
Копирование… OK

Ошибок не произошло


AccurateRip: сводка

Трек 1 точное извлечение (доверие 1) [C3309912]
Трек 2 точное извлечение (доверие 1) [591D40D6]
Трек 3 точное извлечение (доверие 1) [1DAADB91]
Трек 4 точное извлечение (доверие 1) [12F8A79F]
Трек 5 точное извлечение (доверие 1) [ACF96664]
Трек 6 точное извлечение (доверие 1) [468D104F]
Трек 7 точное извлечение (доверие 1) [11261B0F]
Трек 8 точное извлечение (доверие 1) [C445840A]
Трек 9 точное извлечение (доверие 1) [5FE6A7D0]
Трек 10 точное извлечение (доверие 1) [DB6D4146]
Трек 11 точное извлечение (доверие 1) [9EFB173B]
Трек 12 точное извлечение (доверие 1) [1659EE23]
Трек 13 точное извлечение (доверие 1) [CF16383E]
Трек 14 точное извлечение (доверие 1) [D8416E56]
Трек 15 точное извлечение (доверие 1) [4E47B24B]
Трек 16 точное извлечение (доверие 1) [467832E6]
Трек 17 точное извлечение (доверие 1) [21306B9A]
Трек 18 точное извлечение (доверие 1) [2090D053]
Трек 19 точное извлечение (доверие 1) [D7C68BFA]
Трек 20 точное извлечение (доверие 1) [EFB72351]

Все треки извлечены точно

Конец отчёта

[CUETools log; Date: 15.10.2018 18:07:29; Version: 2.1.4]
[CTDB TOCID: j3kh_5DDYhM3r2g95RNoQaPjOBc-] found.
Track | CTDB Status
1 | (4/4) Accurately ripped
2 | (4/4) Accurately ripped
3 | (4/4) Accurately ripped
4 | (4/4) Accurately ripped
5 | (4/4) Accurately ripped
6 | (4/4) Accurately ripped
7 | (4/4) Accurately ripped
8 | (4/4) Accurately ripped
9 | (4/4) Accurately ripped
10 | (4/4) Accurately ripped
11 | (4/4) Accurately ripped
12 | (4/4) Accurately ripped
13 | (4/4) Accurately ripped
14 | (4/4) Accurately ripped
15 | (4/4) Accurately ripped
16 | (4/4) Accurately ripped
17 | (4/4) Accurately ripped
18 | (4/4) Accurately ripped
19 | (4/4) Accurately ripped
20 | (4/4) Accurately ripped
[AccurateRip ID: 0033f9ad-02f91010-1e10c614] found.
Track [ CRC | V2 ] Status
01 [c3309912|3a1e4e58] (0+3/3) Accurately ripped
02 [591d40d6|09a4bf49] (0+3/3) Accurately ripped
03 [1daadb91|750d8bfb] (0+3/3) Accurately ripped
04 [12f8a79f|42995ed1] (0+3/3) Accurately ripped
05 [acf96664|260dc747] (0+3/3) Accurately ripped
06 [468d104f|300f35ef] (0+3/3) Accurately ripped
07 [11261b0f|751558bc] (0+3/3) Accurately ripped
08 [c445840a|403f7d51] (0+3/3) Accurately ripped
09 [5fe6a7d0|5874f6f6] (0+3/3) Accurately ripped
10 [db6d4146|813c0906] (0+3/3) Accurately ripped
11 [9efb173b|410847c2] (0+3/3) Accurately ripped
12 [1659ee23|ad47600b] (0+3/3) Accurately ripped
13 [cf16383e|8081d112] (0+3/3) Accurately ripped
14 [d8416e56|ba8ff2da] (0+3/3) Accurately ripped
15 [4e47b24b|93ab4bf4] (0+3/3) Accurately ripped
16 [467832e6|1c0eb3cd] (0+3/3) Accurately ripped
17 [21306b9a|0f267640] (0+3/3) Accurately ripped
18 [2090d053|cb956f20] (0+3/3) Accurately ripped
19 [d7c68bfa|935cd92c] (0+4/4) Accurately ripped
20 [efb72351|29fcfea4] (0+4/4) Accurately ripped

Track Peak [ CRC32 ] [W/O NULL] [ LOG ]
– 100,0 [6ABE920A] [EA3EE774] CRC32
01 78,0 [C1EC1C33] [E05B2393]
02 90,0 [59F6B78F] [7CFA4AE5]
03 65,1 [619CE529] [6C372F90]
04 84,6 [F42CFBDA] [6A8EE472]
05 75,7 [B8C5AC9B] [55A75688]
06 93,1 [5EE5CFBE] [F0186EA4]
07 72,5 [EAE474E7] [12612A1E]
08 88,6 [D5DD8941] [11BA8600]
09 80,2 [235EBFF6] [B06EE241]
10 79,4 [CAA695CD] [059458DD]
11 77,6 [F42EFE06] [24C6DF20]
12 93,1 [45794413] [ACA4E64B]
13 100,0 [3CA2632D] [73A22427]
14 92,4 [C2CD5B23] [45A7C8E4]
15 48,7 [B1F51838] [4458A100]
16 94,0 [6FCD03DC] [D1682259]
17 86,7 [B7B066F3] [8F1DC7C3]
18 87,1 [5D8EEF9B] [2340675D]
19 80,6 [FA054116] [75737009]
20 96,9 [3E1FA95D] [199EF2E0]

Thanks to Serdgoz