Tags
Language
Tags

Jacques Tom Rivest - Jacques Tom Rivest (1979) [Reissue 2006] (Re-up)

Posted By: gribovar
Jacques Tom Rivest - Jacques Tom Rivest (1979) [Reissue 2006] (Re-up)

Jacques Tom Rivest - Jacques Tom Rivest (1979) [Reissue 2006]
EAC Rip | FLAC (tracks+.cue+log) - 243 MB | MP3 CBR 320 kbps (LAME 3.93) - 96 MB | Covers - 75 MB
Genre: Progressive Rock | RAR 3% Rec. | Label: ProgQuebec (MPM16)

Jacques Rivest was best known as Pollen's vocalist and multi-instrumentalist prior to the release of his first, self-titled solo album in 1979. The LP features Pollen band mates Claude Lemay (keyboards) and Richard Lemoyne (guitar), joined by Daniel Mathieu (bass) and Serge Courchesne (drums/horns). Some of the material is more mainstream, but the acoustic instrumentation lends itself to a folk vibe, and there are some truly progressive moments, as on the Eastern-looking "Voyage au Tibet", as well as the double-keyboard lines and singing, reminiscent of Pollen, found on other tracks. 2006 saw the re-release of Rivest's first solo album, this time on CD, by ProgQuebec. The album is now augmented by a bonus track, taken from a single released about the same time as the original album release.

Tracklist:
01. Dimanche
02. La Langue De Son Pays
03. Voyage Au Tibet
04. Clown d' Un Soir
05. Messager Du Temps
06. Toujours Plus Haut
07. La Nuit
08. Trouver Ma Liberté
09. Laisse Toi Donc Aller
10. Prendre Son Temps (Bonus track)

Total time: 40:45

Exact Audio Copy V0.99 prebeta 4 from 23. January 2008

EAC extraction logfile from 17. March 2010, 10:09

Jacques Tom Rivest / Jacques Tom Rivest

Used drive : ASUS DRW-2014S1 Adapter: 1 ID: 0

Read mode : Secure
Utilize accurate stream : Yes
Defeat audio cache : Yes
Make use of C2 pointers : No

Read offset correction : 6
Overread into Lead-In and Lead-Out : No
Fill up missing offset samples with silence : Yes
Delete leading and trailing silent blocks : No
Null samples used in CRC calculations : Yes
Used interface : Installed external ASPI interface
Gap handling : Appended to previous track

Used output format : User Defined Encoder
Selected bitrate : 768 kBit/s
Quality : High
Add ID3 tag : No
Command line compressor : C:\Program Files\Exact Audio Copy\FLAC\FLAC.EXE
Additional command line options : -6 -V -T "ARTIST=%a" -T "TITLE=%t" -T "ALBUM=%g" -T "DATE=%y" -T "TRACKNUMBER=%n" -T "GENRE=%m" -T "COMMENT=%e" %s -o %d


TOC of the extracted CD

Track | Start | Length | Start sector | End sector
––––––––––––––––––––––––––––-
1 | 0:00.00 | 2:21.24 | 0 | 10598
2 | 2:21.24 | 4:23.28 | 10599 | 30351
3 | 6:44.52 | 7:32.67 | 30352 | 64318
4 | 14:17.44 | 3:37.20 | 64319 | 80613
5 | 17:54.64 | 3:15.35 | 80614 | 95273
6 | 21:10.24 | 3:53.63 | 95274 | 112811
7 | 25:04.12 | 4:43.17 | 112812 | 134053
8 | 29:47.29 | 4:12.58 | 134054 | 153011
9 | 34:00.12 | 3:10.57 | 153012 | 167318
10 | 37:10.69 | 3:33.67 | 167319 | 183360


Track 1

Filename C:\byPr0gger\Jacques Tom Rivest - st (1979 - 2006, ProgQuebec, MPM16)[FLAC]\01. Dimanche.wav

Pre-gap length 0:00:02.00

Peak level 100.0 %
Track quality 100.0 %
Test CRC 5272DD49
Copy CRC 5272DD49
Accurately ripped (confidence 1) [1B264A92]
Copy OK

Track 2

Filename C:\byPr0gger\Jacques Tom Rivest - st (1979 - 2006, ProgQuebec, MPM16)[FLAC]\02. La langue de son pays.wav

Peak level 100.0 %
Track quality 100.0 %
Test CRC 8C5F6B49
Copy CRC 8C5F6B49
Accurately ripped (confidence 1) [38AF043F]
Copy OK

Track 3

Filename C:\byPr0gger\Jacques Tom Rivest - st (1979 - 2006, ProgQuebec, MPM16)[FLAC]\03. Voyage au Tibet.wav

Peak level 100.0 %
Track quality 100.0 %
Test CRC C9934E22
Copy CRC C9934E22
Accurately ripped (confidence 1) [FCC1B7C3]
Copy OK

Track 4

Filename C:\byPr0gger\Jacques Tom Rivest - st (1979 - 2006, ProgQuebec, MPM16)[FLAC]\04. Clown d'un soir.wav

Pre-gap length 0:00:02.04

Peak level 100.0 %
Track quality 100.0 %
Test CRC E76046A6
Copy CRC E76046A6
Accurately ripped (confidence 1) [C6A909C6]
Copy OK

Track 5

Filename C:\byPr0gger\Jacques Tom Rivest - st (1979 - 2006, ProgQuebec, MPM16)[FLAC]\05. Messager du temps.wav

Pre-gap length 0:00:02.29

Peak level 100.0 %
Track quality 100.0 %
Test CRC E007EB34
Copy CRC E007EB34
Accurately ripped (confidence 1) [59FD6A00]
Copy OK

Track 6

Filename C:\byPr0gger\Jacques Tom Rivest - st (1979 - 2006, ProgQuebec, MPM16)[FLAC]\06. Toujours plus haut.wav

Pre-gap length 0:00:03.85

Peak level 100.0 %
Track quality 100.0 %
Test CRC 429E4CD8
Copy CRC 429E4CD8
Accurately ripped (confidence 1) [F7949F83]
Copy OK

Track 7

Filename C:\byPr0gger\Jacques Tom Rivest - st (1979 - 2006, ProgQuebec, MPM16)[FLAC]\07. La niut.wav

Pre-gap length 0:00:01.88

Peak level 100.0 %
Track quality 99.9 %
Test CRC 36D94425
Copy CRC 36D94425
Accurately ripped (confidence 1) [EBD8B052]
Copy OK

Track 8

Filename C:\byPr0gger\Jacques Tom Rivest - st (1979 - 2006, ProgQuebec, MPM16)[FLAC]\08. Trouver ma liberte.wav

Pre-gap length 0:00:01.44

Peak level 100.0 %
Track quality 100.0 %
Test CRC 1117EB13
Copy CRC 1117EB13
Accurately ripped (confidence 1) [299F0827]
Copy OK

Track 9

Filename C:\byPr0gger\Jacques Tom Rivest - st (1979 - 2006, ProgQuebec, MPM16)[FLAC]\09. Laisse toe donc aller.wav

Pre-gap length 0:00:01.80

Peak level 100.0 %
Track quality 100.0 %
Test CRC FD8E9C7E
Copy CRC FD8E9C7E
Accurately ripped (confidence 1) [E5B9BC92]
Copy OK

Track 10

Filename C:\byPr0gger\Jacques Tom Rivest - st (1979 - 2006, ProgQuebec, MPM16)[FLAC]\10. Prendre son temps.wav

Pre-gap length 0:00:03.36

Peak level 100.0 %
Track quality 100.0 %
Test CRC 77F2313B
Copy CRC 77F2313B
Accurately ripped (confidence 1) [FE9C6490]
Copy OK


All tracks accurately ripped

No errors occurred

End of status report

[CUETools log; Date: 31.08.2020 13:23:43; Version: 2.1.4]
[CTDB TOCID: GAPYa4inIT1QoFuDQf3pt5vBnTk-] found.
Track | CTDB Status
1 | (4/4) Accurately ripped
2 | (4/4) Accurately ripped
3 | (4/4) Accurately ripped
4 | (4/4) Accurately ripped
5 | (4/4) Accurately ripped
6 | (4/4) Accurately ripped
7 | (4/4) Accurately ripped
8 | (4/4) Accurately ripped
9 | (4/4) Accurately ripped
10 | (4/4) Accurately ripped
[AccurateRip ID: 000fbe24-007e3ede-7a098c0a] found.
Track [ CRC | V2 ] Status
01 [1b264a92|5d749674] (2+5/7) Accurately ripped
02 [38af043f|9617dc7b] (2+5/7) Accurately ripped
03 [fcc1b7c3|d43f6313] (2+4/6) Accurately ripped
04 [c6a909c6|04a50ce7] (2+4/6) Accurately ripped
05 [59fd6a00|53c8a772] (2+4/6) Accurately ripped
06 [f7949f83|d387c44b] (2+4/6) Accurately ripped
07 [ebd8b052|7efdc5bf] (2+4/6) Accurately ripped
08 [299f0827|58766744] (2+4/6) Accurately ripped
09 [e5b9bc92|8012d7eb] (2+4/6) Accurately ripped
10 [fe9c6490|573be6a7] (2+5/7) Accurately ripped

Track Peak [ CRC32 ] [W/O NULL] [ LOG ]
– 100,0 [EC23972E] [D66CB6BF]
01 100,0 [5272DD49] [08942753] CRC32
02 100,0 [8C5F6B49] [87C16B84] CRC32
03 100,0 [C9934E22] [DC00E8DB] CRC32
04 100,0 [E76046A6] [93623DCE] CRC32
05 100,0 [E007EB34] [3C0BCD12] CRC32
06 100,0 [429E4CD8] [3AA53029] CRC32
07 100,0 [36D94425] [3901AEE8] CRC32
08 100,0 [1117EB13] [CEC8F9B5] CRC32
09 100,0 [FD8E9C7E] [4120B06F] CRC32
10 100,0 [77F2313B] [ED2F5199] CRC32

Thanks to Pr0gger