Tags
Language
Tags

Jakob Lindberg - Johann Sebastian Bach: Lute Music (1994)

Posted By: ArlegZ
Jakob Lindberg - Johann Sebastian Bach: Lute Music (1994)

Jakob Lindberg - Johann Sebastian Bach: Lute Music (1994)
EAC | FLAC | Image (Cue & Log) ~ 500 Mb | Total time: 110:01 | Scans included
Classical | Label: BIS Records | # BIS-587 CD | Recorded: 1992

The Swedish lutenist, Jakob Lindberg, developed his first passionate interest in music through the Beatles. He started to play the guitar and soon became interested in the classical repertoire. From the age of 14 he studied with Jörgen Rörby who also gave him his first tuition on the lute. After reading music at Stockholm University he went to London to study at the Royal College of Music. Here he further developed his knowledge of the lute repertoire under the guidance of Diana Poulton and decided towards the end of his studies to concentrate on Renaissance and Baroque music.
Jakob Lindberg is now one of the most prolific performers in this field. He has made numerous recordings for BIS, many of which are pioneering in that they present a wide range of music on CD for the first time. He has brought Scottish lute music to public attention, he has demonstrated the beauty of the Italian repertoire for chitarrone and he has recorded chamber music by Antonio Vivaldi, Haydn and Boccherini on period instruments. He is the first lutenist to have recorded the complete solo lute music by John Dowland and his recording of J.S. Bach's music for solo lute is considered to be one of the most important readings of these works.

Performer:
Jakob Lindberg, lute

Track List:
CD1:
Suite in G minor, BWV995
01. 1. Prelude
02. 2. Allemande
03. 3. Courante
04. 4. Sarabande
05. 5. Gavottes I & II
06. 6. Gigue
Suite in E minor, BWV996
07. 1. Prelude
08. 2. Allemande
09. 3. Courante
10. 4. Sarabande
11. 5. Bourrée
12. 6. Gigue
Suite in C minor, BWV997
13. 1. Prelude
14. 2. Fugue
15. 3. Sarabande
16. 4. Gigue-Double
CD2:
Prelude, Fugue and Allegro in E flat major, BWV998
01. 1. Prelude
02. 2. Fugue
03. 3. Allegro
04. Prelude in C minor, BWV999
05. Fugue in G minor, BWV1000
Suite in E major, BWV1006a
06. 1. Prelude
07. 2. Loure
08. 3. Gavotte en Rondeau
09. Menuets I & II
10. 5. Bourrée
11. 6. Gigue


Exact Audio Copy V1.3 from 2. September 2016

EAC extraction logfile from 23. June 2017, 0:12

Jacob Lindberg / Lute Music (CD1)

Used drive : HL-DT-STDVDRAM GH22NS50 Adapter: 1 ID: 1

Read mode : Secure
Utilize accurate stream : Yes
Defeat audio cache : Yes
Make use of C2 pointers : No

Read offset correction : 667
Overread into Lead-In and Lead-Out : No
Fill up missing offset samples with silence : Yes
Delete leading and trailing silent blocks : No
Null samples used in CRC calculations : Yes
Used interface : Native Win32 interface for Win NT & 2000

Used output format : User Defined Encoder
Selected bitrate : 1024 kBit/s
Quality : High
Add ID3 tag : No
Command line compressor : C:\Program Files (x86)\Exact Audio Copy\FLAC\FLAC.EXE
Additional command line options : -6 -V -T "ARTIST=%artist%" -T "TITLE=%title%" -T "ALBUM=%albumtitle%" -T "DATE=%year%" -T "TRACKNUMBER=%tracknr%" -T "GENRE=%genre%" -T "COMMENT=%comment%" -T "BAND=%albuminterpret%" -T "ALBUMARTIST=%albuminterpret%" -T "COMPOSER=%composer%" %haslyrics%–tag-from-file=LYRICS="%lyricsfile%"%haslyrics% -T "DISCNUMBER=%cdnumber%" -T "TOTALDISCS=%totalcds%" -T "TOTALTRACKS=%numtracks%" %hascover%–picture="%coverfile%"%hascover% %source% -o %dest%


TOC of the extracted CD

Track | Start | Length | Start sector | End sector
––––––––––––––––––––––––––––-
1 | 0:00.00 | 5:45.12 | 0 | 25886
2 | 5:45.12 | 4:58.25 | 25887 | 48261
3 | 10:43.37 | 2:04.38 | 48262 | 57599
4 | 12:48.00 | 2:41.25 | 57600 | 69699
5 | 15:29.25 | 4:47.37 | 69700 | 91261
6 | 20:16.62 | 2:45.13 | 91262 | 103649
7 | 23:02.00 | 2:56.25 | 103650 | 116874
8 | 25:58.25 | 2:47.50 | 116875 | 129449
9 | 28:46.00 | 3:10.00 | 129450 | 143699
10 | 31:56.00 | 4:04.00 | 143700 | 161999
11 | 36:00.00 | 1:28.50 | 162000 | 168649
12 | 37:28.50 | 4:09.25 | 168650 | 187349
13 | 41:38.00 | 3:28.00 | 187350 | 202949
14 | 45:06.00 | 8:22.00 | 202950 | 240599
15 | 53:28.00 | 5:16.25 | 240600 | 264324
16 | 58:44.25 | 7:34.50 | 264325 | 298424


Range status and errors

Selected range

Filename C:\EAC Rips\Bach - Lute Music (Jacob Lindberg)\CD1\Jacob Lindberg - Lute Music (CD1).wav

Peak level 43.7 %
Extraction speed 1.9 X
Range quality 99.9 %
Test CRC BB8FADEB
Copy CRC BB8FADEB
Copy OK

No errors occurred


AccurateRip summary

Track 1 accurately ripped (confidence 5) [2E5751F5] (AR v2)
Track 2 accurately ripped (confidence 5) [D42C8E6A] (AR v2)
Track 3 accurately ripped (confidence 5) [067469D1] (AR v2)
Track 4 accurately ripped (confidence 5) [336E15FB] (AR v2)
Track 5 accurately ripped (confidence 5) [944ADE80] (AR v2)
Track 6 accurately ripped (confidence 5) [B9E2B2FF] (AR v2)
Track 7 accurately ripped (confidence 5) [12462581] (AR v2)
Track 8 accurately ripped (confidence 5) [538BEF9B] (AR v2)
Track 9 accurately ripped (confidence 5) [C794F485] (AR v2)
Track 10 accurately ripped (confidence 5) [F847161C] (AR v2)
Track 11 accurately ripped (confidence 5) [4D747E49] (AR v2)
Track 12 accurately ripped (confidence 5) [4C08CCC5] (AR v2)
Track 13 accurately ripped (confidence 5) [08732D3E] (AR v2)
Track 14 accurately ripped (confidence 5) [A7EF2207] (AR v2)
Track 15 accurately ripped (confidence 5) [25938E86] (AR v2)
Track 16 accurately ripped (confidence 5) [0FFC822C] (AR v2)

All tracks accurately ripped

End of status report

–– CUETools DB Plugin V2.1.6

[CTDB TOCID: kqrfA21gqkien4xsHiKc3OChqac-] database access error: Nie można rozpoznać nazwy zdalnej: 'db.cuetools.net'


==== Log checksum 94A79037ABCC10EFE7AE28B19C2CAF39C739F0B67BC45051554F26C982D28EE6 ====


Exact Audio Copy V1.3 from 2. September 2016

EAC extraction logfile from 23. June 2017, 1:13

Jakob Lindberg / J.S. Bach - Lute Music (CD2)

Used drive : HL-DT-STDVDRAM GH22NS50 Adapter: 1 ID: 1

Read mode : Secure
Utilize accurate stream : Yes
Defeat audio cache : Yes
Make use of C2 pointers : No

Read offset correction : 667
Overread into Lead-In and Lead-Out : No
Fill up missing offset samples with silence : Yes
Delete leading and trailing silent blocks : No
Null samples used in CRC calculations : Yes
Used interface : Native Win32 interface for Win NT & 2000

Used output format : User Defined Encoder
Selected bitrate : 1024 kBit/s
Quality : High
Add ID3 tag : No
Command line compressor : C:\Program Files (x86)\Exact Audio Copy\FLAC\FLAC.EXE
Additional command line options : -6 -V -T "ARTIST=%artist%" -T "TITLE=%title%" -T "ALBUM=%albumtitle%" -T "DATE=%year%" -T "TRACKNUMBER=%tracknr%" -T "GENRE=%genre%" -T "COMMENT=%comment%" -T "BAND=%albuminterpret%" -T "ALBUMARTIST=%albuminterpret%" -T "COMPOSER=%composer%" %haslyrics%–tag-from-file=LYRICS="%lyricsfile%"%haslyrics% -T "DISCNUMBER=%cdnumber%" -T "TOTALDISCS=%totalcds%" -T "TOTALTRACKS=%numtracks%" %hascover%–picture="%coverfile%"%hascover% %source% -o %dest%


TOC of the extracted CD

Track | Start | Length | Start sector | End sector
––––––––––––––––––––––––––––-
1 | 0:00.00 | 2:46.00 | 0 | 12449
2 | 2:46.00 | 6:36.62 | 12450 | 42211
3 | 9:22.62 | 4:07.13 | 42212 | 60749
4 | 13:30.00 | 2:04.00 | 60750 | 70049
5 | 15:34.00 | 6:08.00 | 70050 | 97649
6 | 21:42.00 | 5:16.00 | 97650 | 121349
7 | 26:58.00 | 3:40.00 | 121350 | 137849
8 | 30:38.00 | 3:28.00 | 137850 | 153449
9 | 34:06.00 | 4:32.00 | 153450 | 173849
10 | 38:38.00 | 2:00.62 | 173850 | 182911
11 | 40:38.62 | 3:03.13 | 182912 | 196649


Range status and errors

Selected range

Filename C:\EAC Rips\Bach - Lute Music (Jacob Lindberg)\CD2\Jakob Lindberg - J.S. Bach - Lute Music (CD2).wav

Peak level 42.0 %
Extraction speed 1.6 X
Range quality 100.0 %
Test CRC EAB11BE5
Copy CRC EAB11BE5
Copy OK

No errors occurred


AccurateRip summary

Track 1 not present in database
Track 2 not present in database
Track 3 not present in database
Track 4 not present in database
Track 5 not present in database
Track 6 not present in database
Track 7 not present in database
Track 8 not present in database
Track 9 not present in database
Track 10 not present in database
Track 11 not present in database

None of the tracks are present in the AccurateRip database

End of status report

–– CUETools DB Plugin V2.1.6

[CTDB TOCID: TqIpoDfvD4.5e4jJIB0XnKbUdXI-] found
Submit result: TqIpoDfvD4.5e4jJIB0XnKbUdXI- has been confirmed
Track | CTDB Status
1 | (163/166) Accurately ripped
2 | (163/166) Accurately ripped
3 | (164/166) Accurately ripped
4 | (164/166) Accurately ripped
5 | (164/166) Accurately ripped
6 | (163/166) Accurately ripped
7 | (163/166) Accurately ripped
8 | (164/166) Accurately ripped
9 | (164/166) Accurately ripped
10 | (163/166) Accurately ripped
11 | (164/166) Accurately ripped


==== Log checksum FA207288687CDBF8DBAE95B25E6B1A999EB9E412A8353F35BF9ED819609012E7 ====

Jakob Lindberg - Johann Sebastian Bach: Lute Music (1994)

Thanks to the original releaser