Tags
Language
Tags

James Bowman, Robert King, The King's Consort - Bach: Cantatas BWV54, BWV169, BWV 170 (1989)

Posted By: ArlegZ
James Bowman, Robert King, The King's Consort - Bach: Cantatas BWV54, BWV169, BWV 170 (1989)

James Bowman, Robert King, The King's Consort - Bach: Cantatas BWV54, BWV169, BWV 170 (1989)
EAC | FLAC | Image (Cue & Log) ~ 304 Mb | Total time: 59:03 | Scans included
Classical | Label: Hyperion | CDA66326 | Recorded: 1988

'James Bowman is on impressive form and his admirers need not hesitate here' (The Penguin Guide to Compact Discs) D'excellentes interprétations' (Ecouter, Voir, France) 'After hearing the first three notes of Cantata 170 my expectations of this recording were high. I was not disappointed' (Hi Fi News)

Performer:
James Bowman, countertenor
The King's Consort
Robert King, director

Track List:
Cantata: Vergnügte Ruh', Beliebte Seelenlust, BWV170
01. Aria: Cantata: Vergnügte Ruh', Beliebte Seelenlust
02. Recitativo: Die Welt, Das Sündenhaus
03. Aria: Wie Jammern Mich Doch Die Verkehrten Herzen
04. Recitativo: Wer Sollte Sich Demnach
05. Aria: Mir Ekelt Mehr Zu Leben
Cantata: Widerstehe Doch Der Sünde, BWV54
06. Aria: Widerstehe Doch Der Sünde
07. Recitativo: Die Art Verruchter Sünden
08. Aria: Wer Sünde Tut, Der Ist Vomteufel
Cantata: Gott Soll Allein Mein Herze Haben, BWV169
09. Sinfonia
10. Arioso And Recitativo: Gott Soll Allein Mein Herze Haben
11. Aria: Gott Soll Allein Mein Herze Haben
12. Recitativo: Was Ist Die Liebe Gottes?
13. Aria: Stirb In Mir
14. Recitativo: Doch Meint Es Auch Dabei
15. Chorale: De Süsses Liebe, Schenk Und Deine Gunst


Exact Audio Copy V1.3 from 2. September 2016

EAC extraction logfile from 14. August 2019, 22:59

James Bowman, The King's Consort & Robert King / Bach: Cantatas BWV 54, 169 & 170

Used drive : HL-DT-STDVD+-RW GT10N Adapter: 1 ID: 1

Read mode : Secure
Utilize accurate stream : Yes
Defeat audio cache : Yes
Make use of C2 pointers : No

Read offset correction : 102
Overread into Lead-In and Lead-Out : No
Fill up missing offset samples with silence : Yes
Delete leading and trailing silent blocks : No
Null samples used in CRC calculations : Yes
Used interface : Native Win32 interface for Win NT & 2000

Used output format : User Defined Encoder
Selected bitrate : 1024 kBit/s
Quality : High
Add ID3 tag : No
Command line compressor : C:\Program Files (x86)\Exact Audio Copy\FLAC\FLAC.EXE
Additional command line options : -6 -V -T "ARTIST=%artist%" -T "TITLE=%title%" -T "ALBUM=%albumtitle%" -T "DATE=%year%" -T "TRACKNUMBER=%tracknr%" -T "GENRE=%genre%" -T "COMMENT=%comment%" -T "BAND=%albuminterpret%" -T "ALBUMARTIST=%albuminterpret%" -T "COMPOSER=%composer%" %haslyrics%–tag-from-file=LYRICS="%lyricsfile%"%haslyrics% -T "DISCNUMBER=%cdnumber%" -T "TOTALDISCS=%totalcds%" -T "TOTALTRACKS=%numtracks%" %hascover%–picture="%coverfile%"%hascover% %source% -o %dest%


TOC of the extracted CD

Track | Start | Length | Start sector | End sector
––––––––––––––––––––––––––––-
1 | 0:00.00 | 6:31.17 | 0 | 29341
2 | 6:31.17 | 1:15.60 | 29342 | 35026
3 | 7:47.02 | 6:43.28 | 35027 | 65279
4 | 14:30.30 | 1:15.50 | 65280 | 70954
5 | 15:46.05 | 6:25.32 | 70955 | 99861
6 | 22:11.37 | 8:21.05 | 99862 | 137441
7 | 30:32.42 | 1:00.08 | 137442 | 141949
8 | 31:32.50 | 3:14.22 | 141950 | 156521
9 | 34:46.72 | 8:34.00 | 156522 | 195071
10 | 43:20.72 | 2:29.03 | 195072 | 206249
11 | 45:50.00 | 6:18.70 | 206250 | 234669
12 | 52:08.70 | 0:39.05 | 234670 | 237599
13 | 52:48.00 | 4:47.60 | 237600 | 259184
14 | 57:35.60 | 0:23.15 | 259185 | 260924
15 | 57:59.00 | 1:01.65 | 260925 | 265564


Range status and errors

Selected range

Filename C:\_RIPs\Bach . Cantatas BWV 54, 169 & 170 . Bowman & King\Bach- Cantatas BWV 54, 169 & 170.wav

Peak level 100.0 %
Extraction speed 1.6 X
Range quality 99.9 %
Test CRC A6BCEEF8
Copy CRC 455AB0E6
Copy OK

No errors occurred


AccurateRip summary

Track 1 not present in database
Track 2 not present in database
Track 3 not present in database
Track 4 not present in database
Track 5 not present in database
Track 6 not present in database
Track 7 not present in database
Track 8 not present in database
Track 9 not present in database
Track 10 not present in database
Track 11 not present in database
Track 12 not present in database
Track 13 not present in database
Track 14 not present in database
Track 15 not present in database

None of the tracks are present in the AccurateRip database

End of status report

–– CUETools DB Plugin V2.1.6

[CTDB TOCID: 05DAKmVXqNduTNKo81mIXu0EXp8-] database access error: No se puede resolver el nombre remoto: 'db.cuetools.net'


==== Log checksum EEE466913EFCB7D1528FCC3F08ABE50E84EF238B388372DC9358219B6739976F ====

James Bowman, Robert King, The King's Consort - Bach: Cantatas BWV54, BWV169, BWV 170 (1989)

Thanks to the original releaser