Subcategories

Jan Akkerman & Kaz Lux - Eli (1976) [Remastered 2002]

Posted By: hill0
Jan Akkerman & Kaz Lux - Eli (1976) [Remastered 2002]

Jan Akkerman & Kaz Lux - Eli (1976) [Remastered 2002]
EAC Rip | FLAC (image & cue & log) | 209 MB | MP3 CBR 320 kbps | 90 MB | Scans | 38:36
Genre: Progressive rock / Jazz Rock / Fusion| Country: Netherlands | Label: WEA Records B.V. | 242 361-2

Eli is the fourth solo album by the Dutch guitarist Jan Akkerman. It appeared under the name "Jan Akkerman & Kaz Lux". The track "Strindberg" was written as a tribute to August Strindberg's works. A departure from the progressive rock that Focus (Akkerman's previous band) produced, "Eli" is a concept album with elements of jazz, pop, and funk intermixed. It won the Netherlands' Edison Award in 1976 for Best Album.
Jan Akkerman & Kaz Lux - Eli (1976) [Remastered 2002]

One of my all-time favorite albums, ELI has stayed on my regular playlist since I purchased it in the 1970s as a "cut out." My chief regret about this album is its length: it's too short. The atmospheric mood set by the majority of this lush, beautiful music is too soon over. "WIngs of Strings," "Naked Actress" and of course the inimitable though VERY often imitated "Eli" ("I once watched a fly die," "Eli, Please," and "Puh-FACshun" have been nonsequitar epithets of mine since 1979) are mood masterpieces. Great R&B-like female b/vox, great melodramatic half-spoken lyrics' by Kaz, and, of course, the amazing guitar talent of one of the planet's all-time greatest. Even the low points of this LP/CD are interesting, quirky, oft-times humorous, always out there. A wonderful if brief adventure into a kind of psychedelic world. Sit back, relax, and enjoy.
Review by BrufordFreak



Tracklist:

1. Eli (4:25)
2. Guardian angel (4:55)
3. Tranquillizer (4:16)
4. Can't fake a good time (5:21)
5. There he still goes (3:44)
6. Strindberg (3:08)
7. Wings of strings (3:18)
8. Naked actress (5:44)
9. Fairytale (3:45)

Exact Audio Copy V0.99 prebeta 4 from 23. January 2008

Отчёт EAC об извлечении, выполненном 16. ноября 2008, 17:11

Jan Akkerman & Kaz Lux / Eli

Дисковод: HL-DT-STDVD-RAM GSA-H55N Adapter: 1 ID: 1

Режим чтения : Достоверность
Использование точного потока : Да
Отключение кэша аудио : Да
Использование указателей C2 : Нет

Коррекция смещения при чтении : 102
Способность читать области Lead-in и Lead-out : Нет
Заполнение пропущенных сэмплов тишиной : Да
Удаление блоков с тишиной в начале и конце : Нет
При вычислениях CRC использовались нулевые сэмплы : Нет
Интерфейс : Встроенный Win32-интерфейс для Win NT/2000

Выходной формат : Пользовательский кодировщик
Выбранный битрейт : 1024 kBit/s
Качество : Высокий
Добавление ID3-тэга : Нет
Утилита сжатия : C:\Program Files\Exact Audio Copy\FLAC\FLAC.EXE
Дополнительные параметры : -6 -V -T "ARTIST=%a" -T "TITLE=%t" -T "ALBUM=%g" -T "DATE=%y" -T "TRACKNUMBER=%n" -T "GENRE=%m" -T "COMMENT=%e" %s -o %d

TOC извлечённого CD

Трек | Старт | Длительность | Начальный сектор | Конечный сектор
––––––––––––––––––––––––––––––––––-
1 | 0:00.32 | 4:25.03 | 32 | 19909
2 | 4:25.35 | 4:55.12 | 19910 | 42046
3 | 9:20.47 | 4:16.00 | 42047 | 61246
4 | 13:36.47 | 5:20.53 | 61247 | 85299
5 | 18:57.25 | 3:44.00 | 85300 | 102099
6 | 22:41.25 | 3:07.50 | 102100 | 116174
7 | 25:49.00 | 3:17.50 | 116175 | 130999
8 | 29:06.50 | 5:44.12 | 131000 | 156811
9 | 34:50.62 | 3:45.20 | 156812 | 173706

Характеристики диапазона извлечения и сообщения об ошибках

Выбранный диапазон

Имя файла D:\mydoc\My Music\Jan Akkerman & Kaz Lux\Jan Akkerman & Kaz Lux - Eli.wav

Пиковый уровень 97.5 %
Качество диапазона 99.9 %
CRC копии 473BC20F
Копирование… OK

Ошибок не произошло

AccurateRip: сводка

Трек 1 нет в базе данных
Трек 2 нет в базе данных
Трек 3 нет в базе данных
Трек 4 нет в базе данных
Трек 5 нет в базе данных
Трек 6 нет в базе данных
Трек 7 нет в базе данных
Трек 8 нет в базе данных
Трек 9 нет в базе данных

Ни одного трека нет в базе AccurateRip

Конец отчёта


Personnel

Kax Lux - vocals
Jan Akkerman - guitars & bass
Jasper van Hof - keyboards
Rick van der Linden - keyboards
Warwick Reading - bass
Pierre van der Linden - drums
Richard DeBois - drums
Neppie Noya - percussion
Margriet Eshuijs - backing vocals
Maggie McNeal - backing vocals
Patricia Paay - backing vocals

All thanks to parsrecar

Jan Akkerman & Kaz Lux - Eli (1976) [Remastered 2002]
Jan Akkerman & Kaz Lux - Eli (1976) [Remastered 2002]