Subcategories

Jason Becker - The Blackberry Jams (2002)

Posted By: Andi_Deris
Jason Becker - The Blackberry Jams (2002)

Jason Becker - The Blackberry Jams (2002)
EAC Rip | FLAC: Tracks+Cue+Log | 392 Mb | MP3 CBR 320 kbps | 172 Mb | Scans | Time: 01:14:00
Shrapnel Records | SH 11592
Instrumental Rock, Neo-Classical Metal, Shred, Guitar Virtuoso

Jason Becker is the protagonist of one of rock & roll's most tragic and inspiring stories, refusing to give up his joie de vivre or his inspirational muse despite being struck down by A.L.S. almost 15 years before this particular release, 2002's The Blackberry Jams. Of course, the fact that Becker's difficult condition has made it impossible for him to pick up, much less play, a guitar in over a decade, predicates that the 31 solos and song-snippets collected here were all committed to tape a long time ago, mostly between 1987 and 1988. Recorded by Becker on his home four-track recorder, this C.D. contains predominantly demo-quality, solo performances on electric, and occasionally, acoustic guitars, and, quite understandably, the fidelity ain't all that. But there's more than enough clarity to get the point across, and some tracks were even augmented here and there by Becker's many friends and supporters, most notably old running mate Marty Friedman. Hardly what you'd call a conventional album; this release provides a living document of a truly great talent, and a uniquely courageous soul.

Jason Becker - The Blackberry Jams (2002)




Track Listing

01. Go Off! Intro (00:57)
02. Groin-grabbingly Transcendent (01:49)
03. Opitudes (05:32)
04. Church Of The Weird (04:01)
05. Mabel's Air…Could It Be Any Faster? (04:16)
06. Short X-Ray Eyes (00:50)
07. Airage (01:30)
08. Perpetual Burn (03:27)
09. Ashram Of You, Lee (03:18)
10. Images Intro (00:21)
11. Mabel…Simple Little Nibbling (02:12)
12. Jewel (01:44)
13. Kind Of Like A Spring (00:56)
14. Air (02:49)
15. Ten Yellow Pointy Kitties (02:43)
16. Absurd Temple Jig (01:05)
17. Part Of Stranger (00:49)
18. There's That (01:33)
19. Black Cat (04:14)
20. Little Rippage (00:36)
21. Perpetual Tudes (04:51)
22. Floor Pie (01:07)
23. El Beckero (01:05)
24. Pocus I Say (01:39)
25. Conglomeration…Boy Meets Guitar (05:11)
26. Little Dweller (01:01)
27. Jewel #2 (02:50)
28. Long X-Ray Eyes (04:58)
29. Altitudes Jam (02:51)
30. Bemesderfer's Wooping Stick (01:14)
31. If It Wern't So Purdy I'd Call It Skin Flute (02:32)

Produced by Mike Varney

Musicians

• Jason Becker - Composer, Multi-Instruments
• Marty Friedman - Guitar, Keyboards

Exact Audio Copy V0.99 prebeta 4 from 23. January 2008

EAC extraction logfile from 6. November 2009, 16:02

Jason Becker / The Blackberry Jams

Used drive : SONY DVD RW DW-Q120A Adapter: 0 ID: 0

Read mode : Secure
Utilize accurate stream : Yes
Defeat audio cache : Yes
Make use of C2 pointers : No

Read offset correction : 6
Overread into Lead-In and Lead-Out : No
Fill up missing offset samples with silence : Yes
Delete leading and trailing silent blocks : No
Null samples used in CRC calculations : No
Used interface : Native Win32 interface for Win NT & 2000
Gap handling : Appended to previous track

Used output format : User Defined Encoder
Selected bitrate : 192 kBit/s
Quality : High
Add ID3 tag : No
Command line compressor : C:\Program Files\Exact Audio Copy\Flac\flac.exe
Additional command line options : -6 -V -T "artist=%a" -T "title=%t" -T "album=%g" -T "date=%y" -T "tracknumber=%n" -T "genre=%m" -T comment="%e" -T "comment=EAC (Secure Mode)" %s


TOC of the extracted CD

Track | Start | Length | Start sector | End sector
––––––––––––––––––––––––––––-
1 | 0:00.00 | 0:56.43 | 0 | 4242
2 | 0:56.43 | 1:48.70 | 4243 | 12412
3 | 2:45.38 | 5:32.22 | 12413 | 37334
4 | 8:17.60 | 4:01.11 | 37335 | 55420
5 | 12:18.71 | 4:15.62 | 55421 | 74607
6 | 16:34.58 | 0:50.12 | 74608 | 78369
7 | 17:24.70 | 1:29.40 | 78370 | 85084
8 | 18:54.35 | 3:26.39 | 85085 | 100573
9 | 22:20.74 | 3:17.64 | 100574 | 115412
10 | 25:38.63 | 0:21.01 | 115413 | 116988
11 | 25:59.64 | 2:12.12 | 116989 | 126900
12 | 28:12.01 | 1:44.28 | 126901 | 134728
13 | 29:56.29 | 0:56.13 | 134729 | 138941
14 | 30:52.42 | 2:48.43 | 138942 | 151584
15 | 33:41.10 | 2:42.71 | 151585 | 163805
16 | 36:24.06 | 1:04.61 | 163806 | 168666
17 | 37:28.67 | 0:48.63 | 168667 | 172329
18 | 38:17.55 | 1:33.30 | 172330 | 179334
19 | 39:51.10 | 4:14.31 | 179335 | 198415
20 | 44:05.41 | 0:35.67 | 198416 | 201107
21 | 44:41.33 | 4:50.56 | 201108 | 222913
22 | 49:32.14 | 1:06.48 | 222914 | 227911
23 | 50:38.62 | 1:04.57 | 227912 | 232768
24 | 51:43.44 | 1:38.57 | 232769 | 240175
25 | 53:22.26 | 5:10.40 | 240176 | 263465
26 | 58:32.66 | 1:00.54 | 263466 | 268019
27 | 59:33.45 | 2:49.35 | 268020 | 280729
28 | 62:23.05 | 4:58.02 | 280730 | 303081
29 | 67:21.07 | 2:50.74 | 303082 | 315905
30 | 70:12.06 | 1:14.00 | 315906 | 321455
31 | 71:26.06 | 2:31.69 | 321456 | 332849


Track 1

Filename C:\EACrips\Jason Becker\Jason Becker - The Blackberry Jams (FLAC)\Jason Becker - The Blackberry Jams - 01 - Go Off! Intro.wav

Pre-gap length 0:00:02.00

Peak level 97.7 %
Track quality 100.0 %
Test CRC 35D97DF5
Copy CRC 35D97DF5
Cannot be verified as accurate (confidence 4) [A07A8122], AccurateRip returned [9598E4C6]
Copy OK

Track 2

Filename C:\EACrips\Jason Becker\Jason Becker - The Blackberry Jams (FLAC)\Jason Becker - The Blackberry Jams - 02 - Groin-grabbingly Transcendent.wav

Pre-gap length 0:00:01.27

Peak level 97.7 %
Track quality 99.9 %
Test CRC FE00CD3D
Copy CRC FE00CD3D
Cannot be verified as accurate (confidence 3) [5EA76539], AccurateRip returned [AF5D9999]
Copy OK

Track 3

Filename C:\EACrips\Jason Becker\Jason Becker - The Blackberry Jams (FLAC)\Jason Becker - The Blackberry Jams - 03 - Opitudes.wav

Pre-gap length 0:00:01.22

Peak level 97.7 %
Track quality 100.0 %
Test CRC E90C9D51
Copy CRC E90C9D51
Cannot be verified as accurate (confidence 4) [5A7C64D0], AccurateRip returned [74E09930]
Copy OK

Track 4

Filename C:\EACrips\Jason Becker\Jason Becker - The Blackberry Jams (FLAC)\Jason Becker - The Blackberry Jams - 04 - Church Of The Weird.wav

Pre-gap length 0:00:01.22

Peak level 97.7 %
Track quality 100.0 %
Test CRC A4888722
Copy CRC A4888722
Cannot be verified as accurate (confidence 4) [B16BA0E3], AccurateRip returned [E626EEE7]
Copy OK

Track 5

Filename C:\EACrips\Jason Becker\Jason Becker - The Blackberry Jams (FLAC)\Jason Becker - The Blackberry Jams - 05 - Mabel's Air…Could It Be Any Faster .wav

Pre-gap length 0:00:01.22

Peak level 97.7 %
Track quality 100.0 %
Test CRC E704B1A0
Copy CRC E704B1A0
Cannot be verified as accurate (confidence 3) [9E3DCA0D], AccurateRip returned [5B1EB14D]
Copy OK

Track 6

Filename C:\EACrips\Jason Becker\Jason Becker - The Blackberry Jams (FLAC)\Jason Becker - The Blackberry Jams - 06 - Short X-Ray Eyes.wav

Pre-gap length 0:00:01.22

Peak level 97.7 %
Track quality 100.0 %
Test CRC 2C20A332
Copy CRC 2C20A332
Cannot be verified as accurate (confidence 3) [E2028B34], AccurateRip returned [2384D608]
Copy OK

Track 7

Filename C:\EACrips\Jason Becker\Jason Becker - The Blackberry Jams (FLAC)\Jason Becker - The Blackberry Jams - 07 - Airage.wav

Pre-gap length 0:00:01.22

Peak level 93.3 %
Track quality 100.0 %
Test CRC FF10C680
Copy CRC FF10C680
Cannot be verified as accurate (confidence 3) [CA28198B], AccurateRip returned [DE48BD53]
Copy OK

Track 8

Filename C:\EACrips\Jason Becker\Jason Becker - The Blackberry Jams (FLAC)\Jason Becker - The Blackberry Jams - 08 - Perpetual Burn.wav

Pre-gap length 0:00:01.22

Peak level 97.7 %
Track quality 99.9 %
Test CRC 3885AD83
Copy CRC 3885AD83
Cannot be verified as accurate (confidence 3) [F009BC8C], AccurateRip returned [6D9A1CB2]
Copy OK

Track 9

Filename C:\EACrips\Jason Becker\Jason Becker - The Blackberry Jams (FLAC)\Jason Becker - The Blackberry Jams - 09 - Ashram Of You, Lee.wav

Pre-gap length 0:00:01.22

Peak level 97.7 %
Track quality 100.0 %
Test CRC 7C028DC8
Copy CRC 7C028DC8
Cannot be verified as accurate (confidence 3) [71ADBC3C], AccurateRip returned [3A4D17AE]
Copy OK

Track 10

Filename C:\EACrips\Jason Becker\Jason Becker - The Blackberry Jams (FLAC)\Jason Becker - The Blackberry Jams - 10 - Images Intro.wav

Pre-gap length 0:00:01.22

Peak level 97.7 %
Track quality 100.0 %
Test CRC EA598217
Copy CRC EA598217
Cannot be verified as accurate (confidence 3) [E106EB94], AccurateRip returned [EABDE9F4]
Copy OK

Track 11

Filename C:\EACrips\Jason Becker\Jason Becker - The Blackberry Jams (FLAC)\Jason Becker - The Blackberry Jams - 11 - Mabel…Simple Little Nibbling.wav

Pre-gap length 0:00:01.22

Peak level 97.7 %
Track quality 99.9 %
Test CRC 478ED3DE
Copy CRC 478ED3DE
Cannot be verified as accurate (confidence 3) [6193E19A], AccurateRip returned [F7EBCD0C]
Copy OK

Track 12

Filename C:\EACrips\Jason Becker\Jason Becker - The Blackberry Jams (FLAC)\Jason Becker - The Blackberry Jams - 12 - Jewel.wav

Pre-gap length 0:00:01.22

Peak level 97.7 %
Track quality 100.0 %
Test CRC FE0897B3
Copy CRC FE0897B3
Cannot be verified as accurate (confidence 3) [9C7710D2], AccurateRip returned [4C1D2952]
Copy OK

Track 13

Filename C:\EACrips\Jason Becker\Jason Becker - The Blackberry Jams (FLAC)\Jason Becker - The Blackberry Jams - 13 - Kind Of Like A Spring.wav

Pre-gap length 0:00:01.22

Peak level 97.7 %
Track quality 100.0 %
Test CRC 15215FB9
Copy CRC 15215FB9
Cannot be verified as accurate (confidence 3) [016D85C6], AccurateRip returned [2CD1BAFA]
Copy OK

Track 14

Filename C:\EACrips\Jason Becker\Jason Becker - The Blackberry Jams (FLAC)\Jason Becker - The Blackberry Jams - 14 - Air.wav

Pre-gap length 0:00:01.22

Peak level 97.6 %
Track quality 100.0 %
Test CRC AF1FC2D0
Copy CRC AF1FC2D0
Cannot be verified as accurate (confidence 3) [F92E3D75], AccurateRip returned [C4464655]
Copy OK

Track 15

Filename C:\EACrips\Jason Becker\Jason Becker - The Blackberry Jams (FLAC)\Jason Becker - The Blackberry Jams - 15 - Ten Yellow Pointy Kitties.wav

Pre-gap length 0:00:01.22

Peak level 97.2 %
Track quality 100.0 %
Test CRC B6D34190
Copy CRC B6D34190
Cannot be verified as accurate (confidence 3) [F11BE8E7], AccurateRip returned [6ABE0F21]
Copy OK

Track 16

Filename C:\EACrips\Jason Becker\Jason Becker - The Blackberry Jams (FLAC)\Jason Becker - The Blackberry Jams - 16 - Absurd Temple Jig.wav

Pre-gap length 0:00:01.22

Peak level 97.7 %
Track quality 100.0 %
Test CRC EC8F106A
Copy CRC EC8F106A
Cannot be verified as accurate (confidence 3) [324A38F4], AccurateRip returned [386B8176]
Copy OK

Track 17

Filename C:\EACrips\Jason Becker\Jason Becker - The Blackberry Jams (FLAC)\Jason Becker - The Blackberry Jams - 17 - Part Of Stranger.wav

Pre-gap length 0:00:01.22

Peak level 97.7 %
Track quality 100.0 %
Test CRC 54A5475D
Copy CRC 54A5475D
Cannot be verified as accurate (confidence 3) [2C50EB11], AccurateRip returned [185323BD]
Copy OK

Track 18

Filename C:\EACrips\Jason Becker\Jason Becker - The Blackberry Jams (FLAC)\Jason Becker - The Blackberry Jams - 18 - There's That.wav

Pre-gap length 0:00:01.22

Peak level 97.7 %
Track quality 100.0 %
Test CRC 339EE046
Copy CRC 339EE046
Cannot be verified as accurate (confidence 3) [668ECC4F], AccurateRip returned [6EF76AF1]
Copy OK

Track 19

Filename C:\EACrips\Jason Becker\Jason Becker - The Blackberry Jams (FLAC)\Jason Becker - The Blackberry Jams - 19 - Black Cat.wav

Pre-gap length 0:00:01.22

Peak level 97.7 %
Track quality 100.0 %
Test CRC 8D59124C
Copy CRC 8D59124C
Cannot be verified as accurate (confidence 3) [C8D03453], AccurateRip returned [24BDC4D7]
Copy OK

Track 20

Filename C:\EACrips\Jason Becker\Jason Becker - The Blackberry Jams (FLAC)\Jason Becker - The Blackberry Jams - 20 - Little Rippage.wav

Pre-gap length 0:00:01.22

Peak level 97.7 %
Track quality 100.0 %
Test CRC 6DBB6EB5
Copy CRC 6DBB6EB5
Cannot be verified as accurate (confidence 3) [A3D3F906], AccurateRip returned [8F94C392]
Copy OK

Track 21

Filename C:\EACrips\Jason Becker\Jason Becker - The Blackberry Jams (FLAC)\Jason Becker - The Blackberry Jams - 21 - Perpetual Tudes.wav

Pre-gap length 0:00:01.22

Peak level 97.7 %
Track quality 100.0 %
Test CRC 414895A7
Copy CRC 414895A7
Cannot be verified as accurate (confidence 3) [81A939B3], AccurateRip returned [2BAD7C9F]
Copy OK

Track 22

Filename C:\EACrips\Jason Becker\Jason Becker - The Blackberry Jams (FLAC)\Jason Becker - The Blackberry Jams - 22 - Floor Pie.wav

Pre-gap length 0:00:01.22

Peak level 97.7 %
Track quality 100.0 %
Test CRC 48339D53
Copy CRC 48339D53
Cannot be verified as accurate (confidence 3) [CB9B34A6], AccurateRip returned [7E47116C]
Copy OK

Track 23

Filename C:\EACrips\Jason Becker\Jason Becker - The Blackberry Jams (FLAC)\Jason Becker - The Blackberry Jams - 23 - El Beckero.wav

Pre-gap length 0:00:01.22

Peak level 97.7 %
Track quality 99.8 %
Test CRC 65D629AC
Copy CRC 65D629AC
Cannot be verified as accurate (confidence 3) [FD60AAF2], AccurateRip returned [5726DA18]
Copy OK

Track 24

Filename C:\EACrips\Jason Becker\Jason Becker - The Blackberry Jams (FLAC)\Jason Becker - The Blackberry Jams - 24 - Pocus I Say.wav

Pre-gap length 0:00:01.22

Peak level 97.7 %
Track quality 100.0 %
Test CRC 2EF5D6E3
Copy CRC 2EF5D6E3
Cannot be verified as accurate (confidence 3) [CD34DE97], AccurateRip returned [8C043AF9]
Copy OK

Track 25

Filename C:\EACrips\Jason Becker\Jason Becker - The Blackberry Jams (FLAC)\Jason Becker - The Blackberry Jams - 25 - Conglomeration…Boy Meets Guitar.wav

Pre-gap length 0:00:01.22

Peak level 97.7 %
Track quality 100.0 %
Test CRC 873BA420
Copy CRC 873BA420
Cannot be verified as accurate (confidence 3) [DB86A5BE], AccurateRip returned [0E44127C]
Copy OK

Track 26

Filename C:\EACrips\Jason Becker\Jason Becker - The Blackberry Jams (FLAC)\Jason Becker - The Blackberry Jams - 26 - Little Dweller.wav

Pre-gap length 0:00:01.22

Peak level 91.1 %
Track quality 100.0 %
Test CRC 835FB099
Copy CRC 835FB099
Cannot be verified as accurate (confidence 3) [12B562DC], AccurateRip returned [83E01FD2]
Copy OK

Track 27

Filename C:\EACrips\Jason Becker\Jason Becker - The Blackberry Jams (FLAC)\Jason Becker - The Blackberry Jams - 27 - Jewel #2.wav

Pre-gap length 0:00:01.22

Peak level 97.7 %
Track quality 100.0 %
Test CRC 41A2203E
Copy CRC 41A2203E
Cannot be verified as accurate (confidence 3) [52437D58], AccurateRip returned [3810A42E]
Copy OK

Track 28

Filename C:\EACrips\Jason Becker\Jason Becker - The Blackberry Jams (FLAC)\Jason Becker - The Blackberry Jams - 28 - Long X-Ray Eyes.wav

Pre-gap length 0:00:01.22

Peak level 97.7 %
Track quality 100.0 %
Test CRC 8A6EAA0E
Copy CRC 8A6EAA0E
Cannot be verified as accurate (confidence 3) [68B9DEAC], AccurateRip returned [24AF649C]
Copy OK

Track 29

Filename C:\EACrips\Jason Becker\Jason Becker - The Blackberry Jams (FLAC)\Jason Becker - The Blackberry Jams - 29 - Altitudes Jam.wav

Pre-gap length 0:00:01.22

Peak level 97.7 %
Track quality 99.9 %
Test CRC B5693CEC
Copy CRC B5693CEC
Cannot be verified as accurate (confidence 3) [16672A6F], AccurateRip returned [446F6B93]
Copy OK

Track 30

Filename C:\EACrips\Jason Becker\Jason Becker - The Blackberry Jams (FLAC)\Jason Becker - The Blackberry Jams - 30 - Bemesderfer's Wooping Stick.wav

Pre-gap length 0:00:01.22

Peak level 97.7 %
Track quality 100.0 %
Test CRC 4555A8BC
Copy CRC 4555A8BC
Cannot be verified as accurate (confidence 3) [4A6EF3BC], AccurateRip returned [0CFD6AC4]
Copy OK

Track 31

Filename C:\EACrips\Jason Becker\Jason Becker - The Blackberry Jams (FLAC)\Jason Becker - The Blackberry Jams - 31 - If It Wern't So Purdy I'd Call It Skin Flute.wav

Pre-gap length 0:00:01.22

Peak level 61.6 %
Track quality 100.0 %
Test CRC D68C7A92
Copy CRC D68C7A92
Cannot be verified as accurate (confidence 3) [6CD244D8], AccurateRip returned [8EBF894A]
Copy OK


No tracks could be verified as accurate
You may have a different pressing from the one(s) in the database

No errors occurred

End of status report


Many thanks to the original uploader: lanson