Subcategories
Tags
Language
Tags

Jay McShann - The Last Of The Blue Devils (1978) [Reissue 2006]

Posted By: gribovar
Jay McShann - The Last Of The Blue Devils (1978) [Reissue 2006]

Jay McShann - The Last Of The Blue Devils (1978) [Reissue 2006]
EAC Rip | FLAC (image+.cue+log) - 258 MB | MP3 CBR 320 kbps (LAME 3.93) - 110 MB | Covers - 56 MB
Genre: Piano Blues, Jazz Blues | RAR 3% Rec. | Label: Collectables Records (COL-CD-6758)

When Charlie Parker first came to New York in 1942, he was a sideman in Jay McShann's big band. Every jazz fan knows what happened after that - Parker changed the world and McShann became a footnote in Parker's biography. That's too bad, and not just for him; if the 1978 session remastered and reissued on this disc is anything to go by, McShann had much more to offer the world than his role as caregiver to the inventor of bebop. Leading an all-star cast that includes saxophonist Paul Quinichette, the ubiquitous Milt Hinton on bass, and a young, up-and-coming guitarist named John Scofield, McShann teaches an entire course on the history of blues-based jazz, going from his own "Confessin' the Blues" through "Hootie Blues" (which he co-wrote with Parker and Walter Brown) and an intensely swinging version of Count Basie's "Jumpin' at the Woodside." He goes off on a welcome tangent with Pete Johnson's sweet stride ballad "Just for You" and comes on home with the boogie-woogie composition "'Fore Day Rider" and Leiber and Stoller's "Kansas City."
Tracklist:
01. Confessin' The Blues
02. Tain't Nobody's Bizness If I Do
03. Hootie Blues
04. Blue Devil Jump
05. My Chile
06. Jumpin' At The Woodside
07. Just For You
08. Hot Biscuits
09. Fore Day Rider
10. Kansas City

Total time: 46:57

Exact Audio Copy V0.99 prebeta 5 from 4. May 2009

EAC extraction logfile from 29. April 2010, 1:16

Jay McShann / The Last Of The Blue Devils (2006-Collectables)

Used drive : HL-DT-STDVD-RAM GH22NP20 Adapter: 0 ID: 0

Read mode : Secure
Utilize accurate stream : Yes
Defeat audio cache : Yes
Make use of C2 pointers : No

Read offset correction : 102
Overread into Lead-In and Lead-Out : No
Fill up missing offset samples with silence : Yes
Delete leading and trailing silent blocks : No
Null samples used in CRC calculations : Yes
Used interface : Native Win32 interface for Win NT & 2000

Used output format : User Defined Encoder
Selected bitrate : 1024 kBit/s
Quality : High
Add ID3 tag : No
Command line compressor : C:\Program Files\FLAC\flac.exe
Additional command line options : -8 -V -T "ARTIST=%a" -T "TITLE=%t" -T "ALBUM=%g" -T "DATE=%y" -T "TRACKNUMBER=%n" -T "GENRE=%m" -T "COMMENT=EAC FLAC -8" %s


TOC of the extracted CD

Track | Start | Length | Start sector | End sector
––––––––––––––––––––––––––––-
1 | 0:00.00 | 4:45.03 | 0 | 21377
2 | 4:45.03 | 7:02.06 | 21378 | 53033
3 | 11:47.09 | 4:32.02 | 53034 | 73435
4 | 16:19.11 | 3:28.15 | 73436 | 89050
5 | 19:47.26 | 4:18.02 | 89051 | 108402
6 | 24:05.28 | 4:39.00 | 108403 | 129327
7 | 28:44.28 | 5:40.00 | 129328 | 154827
8 | 34:24.28 | 3:29.02 | 154828 | 170504
9 | 37:53.30 | 4:10.60 | 170505 | 189314
10 | 42:04.15 | 4:53.01 | 189315 | 211290


Range status and errors

Selected range

Filename C:\Jay McShann - The Last Of The Blue Devils (2006-Collectables).wav

Peak level 100.0 %
Range quality 100.0 %
Test CRC 1788FC1A
Copy CRC 1788FC1A
Copy OK

No errors occurred


AccurateRip summary

Track 1 not present in database
Track 2 not present in database
Track 3 not present in database
Track 4 not present in database
Track 5 not present in database
Track 6 not present in database
Track 7 not present in database
Track 8 not present in database
Track 9 not present in database
Track 10 not present in database

None of the tracks are present in the AccurateRip database

End of status report

[CUETools log; Date: 14.01.2021 2:15:34; Version: 2.1.4]
[CTDB TOCID: a__RVQ8yoY._7JRk9yzRJZwuyXo-] found.
Track | CTDB Status
1 | (2/2) Accurately ripped
2 | (2/2) Accurately ripped
3 | (2/2) Accurately ripped
4 | (2/2) Accurately ripped
5 | (2/2) Accurately ripped
6 | (2/2) Accurately ripped
7 | (2/2) Accurately ripped
8 | (2/2) Accurately ripped
9 | (2/2) Accurately ripped
10 | (2/2) Accurately ripped
[AccurateRip ID: 001251b9-0090c2f4-950b010a] found.
Track [ CRC | V2 ] Status
01 [625eaa81|34e1183e] (1+0/1) Accurately ripped
02 [9f58778d|f99d6193] (1+0/1) Accurately ripped
03 [9b0ee119|d2b29ba3] (1+0/1) Accurately ripped
04 [f62b265d|c730550d] (1+0/1) Accurately ripped
05 [4f4e8827|e49fd0c8] (1+0/1) Accurately ripped
06 [efbfeb14|4e12bc93] (1+0/1) Accurately ripped
07 [536faaa5|8ddd2e17] (1+0/1) Accurately ripped
08 [71a13922|2012a46c] (1+0/1) Accurately ripped
09 [985decd7|b926f938] (1+0/1) Accurately ripped
10 [528b7aad|51286764] (1+0/1) Accurately ripped

Track Peak [ CRC32 ] [W/O NULL] [ LOG ]
– 100,0 [1788FC1A] [503AC2D4] CRC32
01 100,0 [CDF9182E] [1E5D4B19]
02 100,0 [CF6E0229] [AE7C1F61]
03 100,0 [E4935856] [60A0CB25]
04 100,0 [234A5357] [B783CE39]
05 100,0 [42FF8921] [20EC05D4]
06 100,0 [08E56A3F] [F64D8172]
07 100,0 [E60FA176] [3252BA73]
08 100,0 [595B3A9C] [C1C5CD8B]
09 100,0 [AA2AAC9F] [732E1246]
10 100,0 [7BAD7B38] [C7ADEB1F]

Thanks to рмх222

See also:
Jay McShann - 1944-1946 (1997)