Subcategories

Jean-Guihen Queyras, Akademie für Alte Musik Berlin, Georg Kallweit - Vivaldi: Cello Concertos (2011)

Posted By: ArlegZ
Jean-Guihen Queyras, Akademie für Alte Musik Berlin, Georg Kallweit - Vivaldi: Cello Concertos (2011)

Jean-Guihen Queyras, Akademie für Alte Musik Berlin, Georg Kallweit - Vivaldi: Cello Concertos (2011)
EAC | FLAC | Image (Cue & Log) ~ 360 Mb | Total time: 68:34 | Scans included
Classical | Label: Harmonia Mundi | HMC902095 | Recorded: 2010

Alongside the famous Quattro Stagioni, La Notte, and so on, Vivaldi wrote no fewer than 27 concertos for the cello – an instrument which at the time was generally limited to playing basso continuo. With the genuine virtuosi he had available to him at the Ospedale della Pietà, the Red Priest played a key role in the emancipation of the cello, which so readily inspired him to invent varied figuration. The musicians of the Akademie für Alte Musik Berlin have chosen to add highly expressive pieces by Caldara to punctuate the sumptuous feast of sound offered by maestro Queyras.

Performer:
Jean-Guihen Queyras, cello
Christian Beuse, bassoon
Akademie für Alte Musik Berlin
Georg Kallweit, direction

Track List:
Antonio Vivaldi (1678-1741)
Sinfonia in C major from Dorilla in tempe, RV 709
01. I. I. (-)
02. II. Andante
03. III. Allegro
Vivaldi: Concerto in G minor, RV 416
04. I. Allegro
05. II. Adagio (Largo)
06. III. Allegro
Antonio Caldara (1670-1736)
Sinfonia no.12 in A minor, "La passione di Gesù Signor nostro"
07. I. Grave
08. II. Allegretto
09. III. Adagio
10. IV. Allegro
Antonio Vivaldi
Cello Concerto in F major, RV 412
11. I. I. (-)
12. II. Larghetto
13. III. Allegro
Concerto for strings No. 5, RV 114
14. I. Allegro - [Adagio]
15. II. Ciaccona
Concerto for cello and bassoon in E minor, RV 409
16. I. Adagio / Allegro molto
17. II. Allegro / Adagio
18. III. III Allegro
Concerto, Op. 3 No. 11 'Con due Violini e Violoncello obligato', RV 565
19. I. Allegro - [Adagio e spiccato] - Allegro - [Adagio]
20. II. Largo e spiccato
21. III. Allegro
Cello Concerto in B minor, RV424
22. I. Allegro non molto
23. II. Largo
24. III. Allegro
Antonio Caldara
Sinfonia no.6 in G minor, "San Elena al Calvario"
25. I. Adagio - Allegretto
26. II. Adagio
27. III. Allegro e spiritoso
Antonio Vivaldi
Cello Concerto in A minor, RV 419
28. I. Allegro
29. II. Andante
30. III. Allegro


Exact Audio Copy V1.0 beta 3 from 29. August 2011

EAC extraction logfile from 22. September 2014, 10:30

Jean-Guihen Queyras / Vivaldi - Cello Concertos - Queyras

Used drive : TSSTcorpCDDVDW SH-222BB Adapter: 2 ID: 1

Read mode : Secure
Utilize accurate stream : Yes
Defeat audio cache : Yes
Make use of C2 pointers : No

Read offset correction : 6
Overread into Lead-In and Lead-Out : No
Fill up missing offset samples with silence : Yes
Delete leading and trailing silent blocks : No
Null samples used in CRC calculations : Yes
Used interface : Native Win32 interface for Win NT & 2000

Used output format : User Defined Encoder
Selected bitrate : 896 kBit/s
Quality : High
Add ID3 tag : No
Command line compressor : C:\Program Files\Exact Audio Copy\FLAC\FLAC.EXE
Additional command line options : -8 -V -T "TITLE=%title%" -T "ARTIST=%artist%" -T "ALBUMARTIST=%albumartist%" -T "ALBUM=%albumtitle%" -T "DATE=%year%" -T "TRACKNUMBER=%tracknr%" -T "TRACKTOTAL=%numtracks%" -T "GENRE=%genre%" -T "COMMENT=%comment%" -T "PERFORMER=%albuminterpret%" -T "COMPOSER=%composer%" %source% -o %dest%


TOC of the extracted CD

Track | Start | Length | Start sector | End sector
––––––––––––––––––––––––––––-
1 | 0:00.00 | 1:56.73 | 0 | 8772
2 | 1:56.73 | 2:11.59 | 8773 | 18656
3 | 4:08.57 | 0:39.44 | 18657 | 21625
4 | 4:48.26 | 3:36.34 | 21626 | 37859
5 | 8:24.60 | 3:09.39 | 37860 | 52073
6 | 11:34.24 | 2:42.16 | 52074 | 64239
7 | 14:16.40 | 1:17.46 | 64240 | 70060
8 | 15:34.11 | 1:46.25 | 70061 | 78035
9 | 17:20.36 | 0:45.30 | 78036 | 81440
10 | 18:05.66 | 1:26.61 | 81441 | 87951
11 | 19:32.52 | 2:49.14 | 87952 | 100640
12 | 22:21.66 | 2:26.15 | 100641 | 111605
13 | 24:48.06 | 2:23.73 | 111606 | 122403
14 | 27:12.04 | 2:32.56 | 122404 | 133859
15 | 29:44.60 | 2:39.08 | 133860 | 145792
16 | 32:23.68 | 3:01.11 | 145793 | 159378
17 | 35:25.04 | 0:56.58 | 159379 | 163636
18 | 36:21.62 | 2:20.73 | 163637 | 174209
19 | 38:42.60 | 3:45.37 | 174210 | 191121
20 | 42:28.22 | 2:26.09 | 191122 | 202080
21 | 44:54.31 | 2:19.43 | 202081 | 212548
22 | 47:13.74 | 3:43.64 | 212549 | 229337
23 | 50:57.63 | 2:06.08 | 229338 | 238795
24 | 53:03.71 | 3:14.19 | 238796 | 253364
25 | 56:18.15 | 2:45.42 | 253365 | 265781
26 | 59:03.57 | 0:58.56 | 265782 | 270187
27 | 60:02.38 | 0:49.38 | 270188 | 273900
28 | 60:52.01 | 3:03.62 | 273901 | 287687
29 | 63:55.63 | 3:13.53 | 287688 | 302215
30 | 67:09.41 | 1:23.31 | 302216 | 308471


Range status and errors

Selected range

Filename G:\Ripped general\[7780] Vivaldi – Cello Concertos – Queyras\Vivaldi - Cello Concertos - Queyras.wav

Peak level 96.6 %
Extraction speed 7.3 X
Range quality 100.0 %
Test CRC BE620729
Copy CRC BE620729
Copy OK

No errors occurred


AccurateRip summary

Track 1 accurately ripped (confidence 33) [DF4E4BA8] (AR v2)
Track 2 accurately ripped (confidence 33) [DFC189B8] (AR v2)
Track 3 accurately ripped (confidence 33) [6940AF0D] (AR v2)
Track 4 accurately ripped (confidence 34) [0A497729] (AR v2)
Track 5 accurately ripped (confidence 34) [7534284B] (AR v2)
Track 6 accurately ripped (confidence 34) [C09F58EE] (AR v2)
Track 7 accurately ripped (confidence 34) [878613B7] (AR v2)
Track 8 accurately ripped (confidence 34) [D86B01EA] (AR v2)
Track 9 accurately ripped (confidence 34) [EF4B8DDB] (AR v2)
Track 10 accurately ripped (confidence 33) [3C9AA85E] (AR v2)
Track 11 accurately ripped (confidence 34) [BFC6B82C] (AR v2)
Track 12 accurately ripped (confidence 34) [9B166072] (AR v2)
Track 13 accurately ripped (confidence 35) [703DA0C6] (AR v2)
Track 14 accurately ripped (confidence 35) [CAAB0BD2] (AR v2)
Track 15 accurately ripped (confidence 35) [311B7D90] (AR v2)
Track 16 accurately ripped (confidence 34) [79DC98F1] (AR v2)
Track 17 accurately ripped (confidence 35) [032B0D8A] (AR v2)
Track 18 accurately ripped (confidence 35) [4351C7D1] (AR v2)
Track 19 accurately ripped (confidence 35) [02E801AC] (AR v2)
Track 20 accurately ripped (confidence 35) [B50764A8] (AR v2)
Track 21 accurately ripped (confidence 35) [02D1802D] (AR v2)
Track 22 accurately ripped (confidence 35) [F20912BB] (AR v2)
Track 23 accurately ripped (confidence 35) [4DC9BF07] (AR v2)
Track 24 accurately ripped (confidence 35) [2A60F9EF] (AR v2)
Track 25 accurately ripped (confidence 35) [6B517C6A] (AR v2)
Track 26 accurately ripped (confidence 35) [C888AE06] (AR v2)
Track 27 accurately ripped (confidence 35) [E2A64481] (AR v2)
Track 28 accurately ripped (confidence 35) [E2A87B08] (AR v2)
Track 29 accurately ripped (confidence 35) [B20E41CB] (AR v2)
Track 30 accurately ripped (confidence 35) [6FC56155] (AR v2)

All tracks accurately ripped

End of status report

==== Log checksum 1F7F616CD777742193F7891118E81D6FEED04EEBA66FBF86779A24A7A8E639EC ====

Jean-Guihen Queyras, Akademie für Alte Musik Berlin, Georg Kallweit - Vivaldi: Cello Concertos (2011)

Thanks to the original releaser