Tags
Language
Tags

Jean-Louis Charbonnier, Paul Rousseau, Mauricio Buraglia, Pierre Trocellier - Marin Marais: Folies d'Espagne (2008)

Posted By:
Jean-Louis Charbonnier, Paul Rousseau, Mauricio Buraglia, Pierre Trocellier - Marin Marais: Folies d'Espagne (2008)

Jean-Louis Charbonnier, Paul Rousseau, Mauricio Buraglia, Pierre Trocellier - Marin Marais: Folies d'Espagne (2008)
EAC | FLAC | Image (Cue & Log) ~ 622 Mb | Total time: 65:45+58:55 | Scans included
Classical | Label: Ligia Digital | # Lidia 0301195-08 | Recorded: 2008

Compositeur, pédagogue et joueur de basse de viole à la cour, Marin Marais haussa le jeu de la viole soliste au plus haut niveau de raffinement. Il composa plus de cinq cents pièces, toutes annotées avec précision, sur lesquelles se mesurèrent tous les joueurs de viole de l’époque. Il publia cinq livres pour cet instrument dont certains en duo ou trio.
Jean-Louis Charbonnier, spécialiste et passionné du répertoire des XVIIe et XVIIIe siècles, excelle ici en gambiste. Instigateur du projet de l’enregistrement de l’œuvre réunissant la majorité des pièces de viole de Marin Marais, outre le travail de recherche afin de restaurer ce patrimoine, les enregistrements se sont échelonnés entre 1992 et 2004. C’est d’ailleurs suite au tournage du film d’Alain Corneau Tous les matins du monde auquel Jean-Louis Charbonnier et Mauricio Buraglia ont participé qu’a été entreprise cette série d’enregistrement. Ce ne sont pas des morceaux, des rondeaux, ou l’écoute de motifs repris alternant tonalités majeures et mineures, mais la recherche du ressenti et du sensible. La maîtrise des instruments est parfaite, la sobriété au rendez-vous sans pour autant perdre de charme. L’écoute notamment des gigues et préludes fait parfaitement ressortir sonorité, sensation, expressivité. On peut définitivement parler d’Esthétique.

Performer:
Jean-Louis Charbonnier, viole
Paul Rousseau, violone & viole
Mauricio Buragia, théorbe
Pierre Trocelier, clavecin

Track List:
CD1: Folies d'Espagne
01. Prélude 1
02. Allemande 7
03. Courante 9
04. Sarabande 10
05. Gigue La Favorite 12
06. Menuet 16
07.. Menuet 17
08. Prélude 3
09. Fantaisie 2
10. Sarabande 10
11. Bourasque 5
12. Ballet en Rondeau 19
13. Prélude 4
14. Caprice 14
15. Allemande 7
16. La Folette 8
17. Sarabande 11
18. Gigue 13
19. Gavotte 15
20. Menuet 18"
21. Prélude 6"
22. 32 couplete sur les Folies d'Espagne 20
CD2: La Polonoise
01. Cloches ou Carillon 38
02. Prélude 21
03. Allemande 23
04. Courante 25
05. Sarabande grave 27
06. Fantaisie luthée 30
07. Gigue 31
08. Double Rondeau 34
09. Menuet 35
10. Menuet 36
11. Prélude 22
12. Allemande 24
13. Courante 26
14. Sarabande 8
15. Boutade 29
16. Fantaisie luthée 30
17. Gigue 32
18. Double de la Gigue 33
19. Rondeau Champêtre 37
20. Paysanne 39
21. Menuet 41
22. La Polonoise 40


Exact Audio Copy V0.99 prebeta 3 from 28. July 2007

EAC extraction logfile from 17. February 2010, 21:20

Charbonnier, Rousseau, Buraglia, Trocellier / Marin Marais - Folies d'Espagne - CD1

Used drive : HL-DT-STDVDRAM GSA-4040B Adapter: 3 ID: 1

Read mode : Secure
Utilize accurate stream : Yes
Defeat audio cache : Yes
Make use of C2 pointers : No

Read offset correction : 667
Overread into Lead-In and Lead-Out : No
Fill up missing offset samples with silence : Yes
Delete leading and trailing silent blocks : No
Null samples used in CRC calculations : No
Used interface : Installed external ASPI interface

Used output format : User Defined Encoder
Selected bitrate : 768 kBit/s
Quality : High
Add ID3 tag : No
Command line compressor : F:\Program Files\Exact Audio Copy\FLAC\FLAC.EXE
Additional command line options : -6 -V -T "ARTIST=%a" -T "TITLE=%t" -T "ALBUM=%g" -T "DATE=%y" -T "TRACKNUMBER=%n" -T "GENRE=%m" -T "COMMENT=%e" %s -o %d


TOC of the extracted CD

Track | Start | Length | Start sector | End sector
––––––––––––––––––––––––––––-
1 | 0:00.00 | 2:39.31 | 0 | 11955
2 | 2:39.31 | 3:10.02 | 11956 | 26207
3 | 5:49.33 | 1:25.62 | 26208 | 32644
4 | 7:15.20 | 3:38.49 | 32645 | 49043
5 | 10:53.69 | 2:02.21 | 49044 | 58214
6 | 12:56.15 | 1:08.58 | 58215 | 63372
7 | 14:04.73 | 1:20.03 | 63373 | 69375
8 | 15:25.01 | 1:06.29 | 69376 | 74354
9 | 16:31.30 | 0:56.30 | 74355 | 78584
10 | 17:27.60 | 2:52.15 | 78585 | 91499
11 | 20:20.00 | 0:43.59 | 91500 | 94783
12 | 21:03.59 | 5:14.00 | 94784 | 118333
13 | 26:17.59 | 3:02.16 | 118334 | 131999
14 | 29:20.00 | 2:07.15 | 132000 | 141539
15 | 31:27.15 | 2:57.30 | 141540 | 154844
16 | 34:24.45 | 1:22.44 | 154845 | 161038
17 | 35:47.14 | 3:09.46 | 161039 | 175259
18 | 38:56.60 | 1:49.29 | 175260 | 183463
19 | 40:46.14 | 1:33.46 | 183464 | 190484
20 | 42:19.60 | 1:22.29 | 190485 | 196663
21 | 43:42.14 | 1:51.73 | 196664 | 205061
22 | 45:34.12 | 20:12.55 | 205062 | 296016


Range status and errors

Selected range

Filename R:\Music\Lidi0301195-08-cd1.wav

Peak level 35.8 %
Range quality 100.0 %
Copy CRC C3D93D2E
Copy OK

No errors occurred


AccurateRip summary

Track 1 not present in database
Track 2 not present in database
Track 3 not present in database
Track 4 not present in database
Track 5 not present in database
Track 6 not present in database
Track 7 not present in database
Track 8 not present in database
Track 9 not present in database
Track 10 not present in database
Track 11 not present in database
Track 12 not present in database
Track 13 not present in database
Track 14 not present in database
Track 15 not present in database
Track 16 not present in database
Track 17 not present in database
Track 18 not present in database
Track 19 not present in database
Track 20 not present in database
Track 21 not present in database
Track 22 not present in database

None of the tracks are present in the AccurateRip database

End of status report


Exact Audio Copy V0.99 prebeta 3 from 28. July 2007

EAC extraction logfile from 17. February 2010, 21:59

Charbonnier, Rousseau, Buraglia, Trocellier / Marin Marais - Folies d'Espagne - CD2

Used drive : HL-DT-STDVDRAM GSA-4040B Adapter: 3 ID: 1

Read mode : Secure
Utilize accurate stream : Yes
Defeat audio cache : Yes
Make use of C2 pointers : No

Read offset correction : 667
Overread into Lead-In and Lead-Out : No
Fill up missing offset samples with silence : Yes
Delete leading and trailing silent blocks : No
Null samples used in CRC calculations : No
Used interface : Installed external ASPI interface

Used output format : User Defined Encoder
Selected bitrate : 768 kBit/s
Quality : High
Add ID3 tag : No
Command line compressor : F:\Program Files\Exact Audio Copy\FLAC\FLAC.EXE
Additional command line options : -6 -V -T "ARTIST=%a" -T "TITLE=%t" -T "ALBUM=%g" -T "DATE=%y" -T "TRACKNUMBER=%n" -T "GENRE=%m" -T "COMMENT=%e" %s -o %d


TOC of the extracted CD

Track | Start | Length | Start sector | End sector
––––––––––––––––––––––––––––-
1 | 0:00.00 | 4:57.00 | 0 | 22274
2 | 4:57.00 | 5:02.00 | 22275 | 44924
3 | 9:59.00 | 4:05.30 | 44925 | 63329
4 | 14:04.30 | 2:02.01 | 63330 | 72480
5 | 16:06.31 | 3:52.60 | 72481 | 89940
6 | 19:59.16 | 1:59.74 | 89941 | 98939
7 | 21:59.15 | 2:16.16 | 98940 | 109155
8 | 24:15.31 | 4:51.00 | 109156 | 130980
9 | 29:06.31 | 1:01.04 | 130981 | 135559
10 | 30:07.35 | 1:20.40 | 135560 | 141599
11 | 31:28.00 | 2:33.00 | 141600 | 153074
12 | 34:01.00 | 3:37.15 | 153075 | 169364
13 | 37:38.15 | 2:15.60 | 169365 | 179549
14 | 39:54.00 | 3:20.01 | 179550 | 194550
15 | 43:14.01 | 1:30.60 | 194551 | 201360
16 | 44:44.61 | 1:32.23 | 201361 | 208283
17 | 46:17.09 | 2:38.20 | 208284 | 220153
18 | 48:55.29 | 2:48.51 | 220154 | 232804
19 | 51:44.05 | 2:23.50 | 232805 | 243579
20 | 54:07.55 | 1:33.39 | 243580 | 250593
21 | 55:41.19 | 0:56.04 | 250594 | 254797
22 | 56:37.23 | 2:18.14 | 254798 | 265161


Range status and errors

Selected range

Filename R:\MusicF\Lidi0301195-08-cd2.wav

Peak level 32.1 %
Range quality 99.9 %
Copy CRC 6545D2B3
Copy OK

No errors occurred


AccurateRip summary

Track 1 not present in database
Track 2 not present in database
Track 3 not present in database
Track 4 not present in database
Track 5 not present in database
Track 6 not present in database
Track 7 not present in database
Track 8 not present in database
Track 9 not present in database
Track 10 not present in database
Track 11 not present in database
Track 12 not present in database
Track 13 not present in database
Track 14 not present in database
Track 15 not present in database
Track 16 not present in database
Track 17 not present in database
Track 18 not present in database
Track 19 not present in database
Track 20 not present in database
Track 21 not present in database
Track 22 not present in database

None of the tracks are present in the AccurateRip database

End of status report

Jean-Louis Charbonnier, Paul Rousseau, Mauricio Buraglia, Pierre Trocellier - Marin Marais: Folies d'Espagne (2008)

Thanks to the original releaser