Tags
Language
Tags

Jeanne Lamon, Tafelmusik Baroque Orchestra - Johann Sebastian Bach: Brandenburg Concertos (2012)

Posted By: ArlegZ
Jeanne Lamon, Tafelmusik Baroque Orchestra - Johann Sebastian Bach: Brandenburg Concertos (2012)

Jeanne Lamon, Tafelmusik Baroque Orchestra - Johann Sebastian Bach: Brandenburg Concertos (2012)
EAC | FLAC | Image (Cue & Log) ~ 511 Mb | Total time: 93:27 | Covers included
Classical | Label: Tafelmusik Media | # TMK1004CD2 | Recorded: 1994

The Six Brandenburg Concertos by Johann Sebastian Bach (1685-1750) are considered by musicians, critics and audiences alike among the finest musical compositions of the baroque era. Bach presented the concertos to the Margrave of Brandenburg, Christian Ludwig, in Berlin, March 24, 1721, with the hopes some patronage would come his way. The music was preserved in the Brandenburg archives, and when rediscovered in the 19th century became some of the most beloved music of all time. Beloved is the operative word in this re-release of the masterpieces in the hands of Jeanne Lamon and the Tafelmusik Baroque Orchestra. Critic Teb Libbey wrote, 'Lucid and refreshingly pure, like water drawn from a cool, clear stream, these accounts are notable for the consistently clean textures and solid bass lines, for the way melodic lines and voice leading are clearly delineated, and for the manner in which the solo instruments emerge from the tutti with just the right amount of presence. With excellent sound, these are well-nigh ideal realizations.'

Performer:
Tafelmusik Baroque Orchestra
Jeanne Lamon, musical director

Track List:
CD1:
Brandenburg Concerto No. 1 in F Major, BWV 1046
01. I. —
02. II. Adagio
03. III. Allegro
04. IV. Menuetto - Trio - Menuetto - Polacca - Trio - Menuetto
Brandenburg Concerto No. 2 in F Major, BWV 1047
05. I. —
06. II. Andante
07. III. Allegro assai
Brandenburg Concerto No. 3 in G Major, BWV 1048
08. I. —. II. Adagio
09. III. Allegro
CD2:
Brandenburg Concerto No. 4 in G Major, BWV 1049
01. I. Allegro
02. II. Andante
03. III. Presto
Brandenburg Concerto No. 5 in D Major, BWV 1050
04. I. Allegro
05. II. Affettuoso
06. III. Allegro
Brandenburg Concerto No. 6 in B-Flat Major, BWV 1051
07. I. —
08. II. Adagio ma non tanto
09. III. Allegro


Exact Audio Copy V1.3 from 2. September 2016

EAC extraction logfile from 27. August 2019, 19:08

Tafelmusik Baroque Orchestra / Bach - Brandenburg Concertos CD1

Used drive : HL-DT-STBD-RE WH16NS40 Adapter: 1 ID: 0

Read mode : Secure
Utilize accurate stream : Yes
Defeat audio cache : Yes
Make use of C2 pointers : No

Read offset correction : 6
Overread into Lead-In and Lead-Out : No
Fill up missing offset samples with silence : Yes
Delete leading and trailing silent blocks : No
Null samples used in CRC calculations : Yes
Used interface : Native Win32 interface for Win NT & 2000

Used output format : User Defined Encoder
Selected bitrate : 1024 kBit/s
Quality : High
Add ID3 tag : No
Command line compressor : C:\Program Files (x86)\Exact Audio Copy\FLAC\FLAC.EXE
Additional command line options : -6 -V -T "ARTIST=%artist%" -T "TITLE=%title%" -T "ALBUM=%albumtitle%" -T "DATE=%year%" -T "TRACKNUMBER=%tracknr%" -T "GENRE=%genre%" -T "COMMENT=%comment%" -T "BAND=%albuminterpret%" -T "ALBUMARTIST=%albuminterpret%" -T "COMPOSER=%composer%" %haslyrics%–tag-from-file=LYRICS="%lyricsfile%"%haslyrics% -T "DISCNUMBER=%cdnumber%" -T "TOTALDISCS=%totalcds%" -T "TOTALTRACKS=%numtracks%" %hascover%–picture="%coverfile%"%hascover% %source% -o %dest%


TOC of the extracted CD

Track | Start | Length | Start sector | End sector
––––––––––––––––––––––––––––-
1 | 0:00.00 | 4:10.67 | 0 | 18816
2 | 4:10.67 | 3:39.60 | 18817 | 35301
3 | 7:50.52 | 4:08.68 | 35302 | 53969
4 | 11:59.45 | 7:35.30 | 53970 | 88124
5 | 19:35.00 | 5:13.12 | 88125 | 111611
6 | 24:48.12 | 3:25.13 | 111612 | 126999
7 | 28:13.25 | 3:11.45 | 127000 | 141369
8 | 31:24.70 | 5:52.07 | 141370 | 167776
9 | 37:17.02 | 4:46.13 | 167777 | 189239


Range status and errors

Selected range

Filename C:\Users\Grant\Desktop\Tafelmusik Baroque Orchestra - Bach - Brandenburg Concertos CD1.wav

Peak level 92.9 %
Extraction speed 6.7 X
Range quality 99.9 %
Test CRC 394BB0E5
Copy CRC 394BB0E5
Copy OK

No errors occurred


AccurateRip summary

Track 1 accurately ripped (confidence 2) [7820B2C3] (AR v2)
Track 2 accurately ripped (confidence 2) [7049496C] (AR v2)
Track 3 accurately ripped (confidence 2) [3A70EE0D] (AR v2)
Track 4 accurately ripped (confidence 2) [E67E902B] (AR v2)
Track 5 accurately ripped (confidence 2) [190A6FBE] (AR v2)
Track 6 accurately ripped (confidence 2) [D28FA4A1] (AR v2)
Track 7 accurately ripped (confidence 2) [C20DF950] (AR v2)
Track 8 accurately ripped (confidence 2) [0BB892C1] (AR v2)
Track 9 accurately ripped (confidence 2) [8BDC7486] (AR v2)

All tracks accurately ripped

End of status report

–– CUETools DB Plugin V2.1.6

[CTDB TOCID: qIWOY8x9ltNoE_3rSGgSWNkOmoA-] found
Submit result: qIWOY8x9ltNoE_3rSGgSWNkOmoA- has been confirmed
Track | CTDB Status
1 | (6/6) Accurately ripped
2 | (6/6) Accurately ripped
3 | (6/6) Accurately ripped
4 | (5/6) Accurately ripped
5 | (6/6) Accurately ripped
6 | (6/6) Accurately ripped
7 | (6/6) Accurately ripped
8 | (6/6) Accurately ripped
9 | (6/6) Accurately ripped


==== Log checksum 1B61E11350EE094DB20849E4EF1AFF5CA9F3E195F0EE7F329EBA28071ADE2108 ====


Exact Audio Copy V1.3 from 2. September 2016

EAC extraction logfile from 27. August 2019, 19:41

Tafelmusik Baroque Orchestra / Bach - Brandenburg Concertos CD2

Used drive : HL-DT-STBD-RE WH16NS40 Adapter: 1 ID: 0

Read mode : Secure
Utilize accurate stream : Yes
Defeat audio cache : Yes
Make use of C2 pointers : No

Read offset correction : 6
Overread into Lead-In and Lead-Out : No
Fill up missing offset samples with silence : Yes
Delete leading and trailing silent blocks : No
Null samples used in CRC calculations : Yes
Used interface : Native Win32 interface for Win NT & 2000

Used output format : User Defined Encoder
Selected bitrate : 1024 kBit/s
Quality : High
Add ID3 tag : No
Command line compressor : C:\Program Files (x86)\Exact Audio Copy\FLAC\FLAC.EXE
Additional command line options : -6 -V -T "ARTIST=%artist%" -T "TITLE=%title%" -T "ALBUM=%albumtitle%" -T "DATE=%year%" -T "TRACKNUMBER=%tracknr%" -T "GENRE=%genre%" -T "COMMENT=%comment%" -T "BAND=%albuminterpret%" -T "ALBUMARTIST=%albuminterpret%" -T "COMPOSER=%composer%" %haslyrics%–tag-from-file=LYRICS="%lyricsfile%"%haslyrics% -T "DISCNUMBER=%cdnumber%" -T "TOTALDISCS=%totalcds%" -T "TOTALTRACKS=%numtracks%" %hascover%–picture="%coverfile%"%hascover% %source% -o %dest%


TOC of the extracted CD

Track | Start | Length | Start sector | End sector
––––––––––––––––––––––––––––-
1 | 0:00.00 | 6:52.20 | 0 | 30919
2 | 6:52.20 | 3:10.65 | 30920 | 45234
3 | 10:03.10 | 4:56.72 | 45235 | 67506
4 | 15:00.07 | 10:02.63 | 67507 | 112719
5 | 25:02.70 | 5:01.70 | 112720 | 135364
6 | 30:04.65 | 5:18.17 | 135365 | 159231
7 | 35:23.07 | 5:59.70 | 159232 | 186226
8 | 41:23.02 | 4:24.73 | 186227 | 206099
9 | 45:48.00 | 5:37.02 | 206100 | 231376


Range status and errors

Selected range

Filename C:\Users\Grant\Desktop\Tafelmusik Baroque Orchestra - Bach - Brandenburg Concertos CD2.wav

Peak level 80.4 %
Extraction speed 7.3 X
Range quality 100.0 %
Test CRC D6861DB3
Copy CRC D6861DB3
Copy OK

No errors occurred


AccurateRip summary

Track 1 accurately ripped (confidence 2) [31315422] (AR v2)
Track 2 accurately ripped (confidence 2) [9EDCC69D] (AR v2)
Track 3 accurately ripped (confidence 2) [EFE65D64] (AR v2)
Track 4 accurately ripped (confidence 2) [92144ED2] (AR v2)
Track 5 accurately ripped (confidence 2) [86F0184E] (AR v2)
Track 6 accurately ripped (confidence 2) [D5EBD9BE] (AR v2)
Track 7 accurately ripped (confidence 2) [C221883B] (AR v2)
Track 8 accurately ripped (confidence 2) [7B266A33] (AR v2)
Track 9 accurately ripped (confidence 2) [3B11CC9A] (AR v2)

All tracks accurately ripped

End of status report

–– CUETools DB Plugin V2.1.6

[CTDB TOCID: UUq34S3CKwmYjVMTf1_d3Qqp3LA-] found
Submit result: UUq34S3CKwmYjVMTf1_d3Qqp3LA- has been confirmed
Track | CTDB Status
1 | (6/6) Accurately ripped
2 | (6/6) Accurately ripped
3 | (6/6) Accurately ripped
4 | (6/6) Accurately ripped
5 | (6/6) Accurately ripped
6 | (6/6) Accurately ripped
7 | (6/6) Accurately ripped
8 | (6/6) Accurately ripped
9 | (6/6) Accurately ripped


==== Log checksum 728AC4AB5306A8A1CD60A4FA3ADF625E2E8FD2690D9721A632F13CB9E09E8DB2 ====

Jeanne Lamon, Tafelmusik Baroque Orchestra - Johann Sebastian Bach: Brandenburg Concertos (2012)

Thanks to the original releaser