Tags
Language
Tags

Jeanne Lamon, Tafelmusik Baroque Orchestra - The Baroque Virtuoso (2014)

Posted By: ArlegZ
Jeanne Lamon, Tafelmusik Baroque Orchestra - The Baroque Virtuoso (2014)

Jeanne Lamon, Tafelmusik Baroque Orchestra - The Baroque Virtuoso (2014)
EAC | FLAC | Image (Cue & Log) ~ 393 Mb | Total time: 74:28 | Scans included
Classical | Tafelmusik | TMK1026CD | Recorded: 1991-2011

Music Director of Tafelmusik from 1981 to 2014, Jeanne Lamon was loved by audiences, and praised by critics in Europe and North America for her virtuosity as a violinist and her brilliant musical leadership. Under her direction, Tafelmusik achieved international stature with over 80 recordings to its name, and with tours to over 350 international cities including invitations to the most prestigious concert halls and festivals in the world.
Including beloved works such as “Summer” from The Four Seasons, the Bach Concerto in D Minor for two violins, and a diverse selection of baroque repertoire, this Special Edition CD was selected by Jeanne Lamon, and features her in virtuoso concertos from 1991 to 2011 for Sony Classical and Analekta – to be released in this special commemorative edition on the Tafelmusik Media label. This will be Jeanne Lamon’s final year as full-time Music Director of Tafelmusik, and this CD is in celebration of her exceptional 3-decade leadership.

Performer:
Tafelmusik Baroque Orchestra
Jeanne Lamon, director and violin soloist

Track List:
Johann Sebastian Bach (1685-1750)
Concerto for 2 violins in D minor, BWV 1043
01. Vivace
02. Largo ma non tanto
03. Allegro
Francesco Geminiani (1687-1762)
Concerto grosso in C major, op.5/3
04. Adagio
05. Allegro
06. Adagio
07. Allegro
Johann Heinrich Schmelzer (1623-1680)
08. Sonatae unarum fidium: Sonata 3
Heinrich Ignaz Franz von Biber (1644-1704)
Harmonia artificiosa-ariosa: Partia No. 5
09. Intrada
10. Aria
11. Balletto
12. Gigue
13. Passacaglia
Francesco Geminiani
Concerto grosso in D minor, op. 2/3
14. Presto
15. Adagio
16. Allegro
Antonio Vivaldi (1678-1741)
Concerto for violin in G minor, op. 8/2 "Summer"
17. Allegro non molto - Allegro
18. Adagio
19. Presto
Johann Sebastian Bach
Suite in A minor for violin & strings, after BWV 1067
20. Ouverture
21. Rondeau
22. Sarabande
23. Bourree 1 & 2
24. Polonaise et double
25. Menuet
26. Badinerie


Exact Audio Copy V1.3 from 2. September 2016

EAC extraction logfile from 13. August 2019, 13:30

Jeanne Lamon / The Baroque Virtuoso

Used drive : HL-DT-STBD-RE WH16NS40 Adapter: 1 ID: 0

Read mode : Secure
Utilize accurate stream : Yes
Defeat audio cache : Yes
Make use of C2 pointers : No

Read offset correction : 6
Overread into Lead-In and Lead-Out : No
Fill up missing offset samples with silence : Yes
Delete leading and trailing silent blocks : No
Null samples used in CRC calculations : Yes
Used interface : Native Win32 interface for Win NT & 2000

Used output format : User Defined Encoder
Selected bitrate : 1024 kBit/s
Quality : High
Add ID3 tag : No
Command line compressor : C:\Program Files (x86)\Exact Audio Copy\FLAC\FLAC.EXE
Additional command line options : -6 -V -T "ARTIST=%artist%" -T "TITLE=%title%" -T "ALBUM=%albumtitle%" -T "DATE=%year%" -T "TRACKNUMBER=%tracknr%" -T "GENRE=%genre%" -T "COMMENT=%comment%" -T "BAND=%albuminterpret%" -T "ALBUMARTIST=%albuminterpret%" -T "COMPOSER=%composer%" %haslyrics%–tag-from-file=LYRICS="%lyricsfile%"%haslyrics% -T "DISCNUMBER=%cdnumber%" -T "TOTALDISCS=%totalcds%" -T "TOTALTRACKS=%numtracks%" %hascover%–picture="%coverfile%"%hascover% %source% -o %dest%


TOC of the extracted CD

Track | Start | Length | Start sector | End sector
––––––––––––––––––––––––––––-
1 | 0:00.00 | 3:35.40 | 0 | 16164
2 | 3:35.40 | 6:11.25 | 16165 | 44014
3 | 9:46.65 | 4:17.48 | 44015 | 63337
4 | 14:04.38 | 2:31.67 | 63338 | 74729
5 | 16:36.30 | 1:46.48 | 74730 | 82727
6 | 18:23.03 | 2:59.45 | 82728 | 96197
7 | 21:22.48 | 2:07.30 | 96198 | 105752
8 | 23:30.03 | 6:42.25 | 105753 | 135927
9 | 30:12.28 | 1:25.50 | 135928 | 142352
10 | 31:38.03 | 1:13.22 | 142353 | 147849
11 | 32:51.25 | 0:26.33 | 147850 | 149832
12 | 33:17.58 | 0:52.05 | 149833 | 153737
13 | 34:09.63 | 4:57.21 | 153738 | 176033
14 | 39:07.09 | 2:09.50 | 176034 | 185758
15 | 41:16.59 | 2:46.20 | 185759 | 198228
16 | 44:03.04 | 1:50.45 | 198229 | 206523
17 | 45:53.49 | 5:25.65 | 206524 | 230963
18 | 51:19.39 | 2:09.52 | 230964 | 240690
19 | 53:29.16 | 2:59.25 | 240691 | 254140
20 | 56:28.41 | 6:35.60 | 254141 | 283825
21 | 63:04.26 | 1:52.01 | 283826 | 292226
22 | 64:56.27 | 3:18.05 | 292227 | 307081
23 | 68:14.32 | 1:48.02 | 307082 | 315183
24 | 70:02.34 | 3:07.05 | 315184 | 329213
25 | 73:09.39 | 1:11.06 | 329214 | 334544
26 | 74:20.45 | 1:32.09 | 334545 | 341453


Range status and errors

Selected range

Filename C:\Users\Grant\Desktop\Jeanne Lamon - The Baroque Virtuoso.wav

Peak level 98.6 %
Extraction speed 4.1 X
Range quality 99.9 %
Test CRC A4D66997
Copy CRC A4D66997
Copy OK

No errors occurred


AccurateRip summary

Track 1 accurately ripped (confidence 2) [A3420954] (AR v2)
Track 2 accurately ripped (confidence 2) [1F93221F] (AR v2)
Track 3 accurately ripped (confidence 2) [3DF4632D] (AR v2)
Track 4 accurately ripped (confidence 2) [2057E094] (AR v2)
Track 5 accurately ripped (confidence 2) [53ABB4A0] (AR v2)
Track 6 accurately ripped (confidence 2) [6AC2ED53] (AR v2)
Track 7 accurately ripped (confidence 2) [84D6D522] (AR v2)
Track 8 accurately ripped (confidence 2) [1D3E8ADF] (AR v2)
Track 9 accurately ripped (confidence 2) [215303C0] (AR v2)
Track 10 accurately ripped (confidence 2) [26EE4653] (AR v2)
Track 11 accurately ripped (confidence 2) [A61C1AA8] (AR v2)
Track 12 accurately ripped (confidence 2) [E6BA21E6] (AR v2)
Track 13 accurately ripped (confidence 2) [C6482C16] (AR v2)
Track 14 accurately ripped (confidence 2) [40E65357] (AR v2)
Track 15 accurately ripped (confidence 2) [F1080066] (AR v2)
Track 16 accurately ripped (confidence 2) [21B1DC11] (AR v2)
Track 17 accurately ripped (confidence 2) [29A36029] (AR v2)
Track 18 accurately ripped (confidence 2) [EBEAFB99] (AR v2)
Track 19 accurately ripped (confidence 2) [8385CA71] (AR v2)
Track 20 accurately ripped (confidence 2) [BC2C2DF5] (AR v2)
Track 21 accurately ripped (confidence 2) [53B1A34E] (AR v2)
Track 22 accurately ripped (confidence 2) [611FC9D4] (AR v2)
Track 23 accurately ripped (confidence 2) [B201779A] (AR v2)
Track 24 accurately ripped (confidence 2) [3E16D2F1] (AR v2)
Track 25 accurately ripped (confidence 2) [90614FDB] (AR v2)
Track 26 accurately ripped (confidence 2) [1139292E] (AR v2)

All tracks accurately ripped

End of status report

–– CUETools DB Plugin V2.1.6

[CTDB TOCID: .t2R3lf706.PyQ_jgUvbeQtkIXo-] found
Submit result: .t2R3lf706.PyQ_jgUvbeQtkIXo- has been confirmed
Track | CTDB Status
1 | (7/7) Accurately ripped
2 | (7/7) Accurately ripped
3 | (7/7) Accurately ripped
4 | (7/7) Accurately ripped
5 | (7/7) Accurately ripped
6 | (7/7) Accurately ripped
7 | (7/7) Accurately ripped
8 | (7/7) Accurately ripped
9 | (7/7) Accurately ripped
10 | (7/7) Accurately ripped
11 | (7/7) Accurately ripped
12 | (7/7) Accurately ripped
13 | (7/7) Accurately ripped
14 | (7/7) Accurately ripped
15 | (7/7) Accurately ripped
16 | (7/7) Accurately ripped
17 | (7/7) Accurately ripped
18 | (7/7) Accurately ripped
19 | (7/7) Accurately ripped
20 | (7/7) Accurately ripped
21 | (7/7) Accurately ripped
22 | (7/7) Accurately ripped
23 | (7/7) Accurately ripped
24 | (7/7) Accurately ripped
25 | (7/7) Accurately ripped
26 | (7/7) Accurately ripped


==== Log checksum F1651A0DF362B5A59F90CA9099FDB7BFEBE82A62644A1093CE804E08E44B10AB ====

Jeanne Lamon, Tafelmusik Baroque Orchestra - The Baroque Virtuoso (2014)

Thanks to the original releaser