Tags
Language
Tags

Jeanne Lamon, Tafelmusik - Heinrich Ignaz Franz Biber: Harmonia artificioso-ariosa (2006)

Posted By: ArlegZ
Jeanne Lamon, Tafelmusik - Heinrich Ignaz Franz Biber: Harmonia artificioso-ariosa (2006)

Jeanne Lamon, Tafelmusik - Heinrich Ignaz Franz Biber: Harmonia artificioso-ariosa (2006)
EAC | FLAC | Image (Cue & Log) ~ 409 Mb | Total time: 77:55 | Scans included
Classical | Label: Sony Classical | # C10702 | Recorded: 1993

Biber was one of the most talented and fascinating composers of the 17th century. He spent his life working between Czechoslovakia and Austria, attaining a considerable amount of fame and even earning a patent of nobility (he was permitted later in life to refer to himself as "von" Biber). His instrumental music is the most fanciful and entertaining of the period, partly due to his use of scordatura, or mistuning. This technique requires a different violin-string tuning for each of the seven partitas in this collection, which gives each a particular instrumental color. A partita, by the way, is the same thing as a suite–a selection of dances collected together to make a contrasting set. Everything by Biber is worth hearing, and this fine disc is no exception.
– David Hurwitz

Performer:
Tafelmusik
Jeanne Lamon, musical director

Track List:
Partia I
01. Sonata. Adagio - Presto - Adagio
02. Allamande
03. Gigue - Variatio I & II
04. Aria
05. Sarabande - Variatio I & II - Finale. Presto
Partia II
06. Praeludium
07. Allamande - Variatio
08. Balletto. Allegro
09. Aria. Presto
10. Gigue. Presto
Partia III
11. Praeludium. Allegro
12. Allamande
13. Amener. Presto
14. Balletto
15. Gigue
16. Ciacona (Canon In Unisono)
Partia IV
17. Sonata. Adagio - Allegro - Adagio
18. Allamande
19. Trezza. Presto
20. Aria
21. Canario
22. Gigue. Presto
23. Pollicinello. Presto
Partia V
24. Intrada. Alla Breve
25. Aria. Adagio
26. Balletto. Presto
27. Gigue
28. Passacaglia. (Adagio) - Allegro - Adagio
Partia VI
29. Praeludium. Adagio - Allegro
30. Aria - Variatio I - XIII
31. Finale. Adagio - Allegro
Partia VII
32. Praeludium
33. Allamande
34. Sarabande
35. Gigue. Presto
36. Aria
37. Trezza
38. Arietta Variata


Exact Audio Copy V1.6 from 23. October 2020

EAC extraction logfile from 3. July 2021, 16:06

Tafelmusik, Jeanne Lamon / Biber - Harmonia artificioso-ariosa

Used drive : PIONEER DVD-RW DVR-218L Adapter: 1 ID: 0

Read mode : Secure
Utilize accurate stream : Yes
Defeat audio cache : Yes
Make use of C2 pointers : No

Read offset correction : 6
Overread into Lead-In and Lead-Out : No
Fill up missing offset samples with silence : Yes
Delete leading and trailing silent blocks : No
Null samples used in CRC calculations : Yes
Used interface : Native Win32 interface for Win NT & 2000

Used output format : User Defined Encoder
Selected bitrate : 128 kBit/s
Quality : High
Add ID3 tag : No
Command line compressor : C:\Program Files\Exact Audio Copy\Flac\flac.exe
Additional command line options : -V -8 -T "Date=%year%" -T "Genre=%genre%" %source%


TOC of the extracted CD

Track | Start | Length | Start sector | End sector
––––––––––––––––––––––––––––-
1 | 0:00.00 | 2:43.32 | 0 | 12256
2 | 2:43.32 | 1:56.63 | 12257 | 21019
3 | 4:40.20 | 4:17.60 | 21020 | 40354
4 | 8:58.05 | 1:49.07 | 40355 | 48536
5 | 10:47.12 | 3:48.38 | 48537 | 65674
6 | 14:35.50 | 1:54.10 | 65675 | 74234
7 | 16:29.60 | 3:34.62 | 74235 | 90346
8 | 20:04.47 | 1:02.13 | 90347 | 95009
9 | 21:06.60 | 0:41.07 | 95010 | 98091
10 | 21:47.67 | 1:21.58 | 98092 | 104224
11 | 23:09.50 | 1:34.65 | 104225 | 111339
12 | 24:44.40 | 1:49.72 | 111340 | 119586
13 | 26:34.37 | 0:55.03 | 119587 | 123714
14 | 27:29.40 | 1:11.60 | 123715 | 129099
15 | 28:41.25 | 0:32.72 | 129100 | 131571
16 | 29:14.22 | 3:48.28 | 131572 | 148699
17 | 33:02.50 | 2:33.17 | 148700 | 160191
18 | 35:35.67 | 1:52.10 | 160192 | 168601
19 | 37:28.02 | 0:50.30 | 168602 | 172381
20 | 38:18.32 | 0:56.65 | 172382 | 176646
21 | 39:15.22 | 0:40.23 | 176647 | 179669
22 | 39:55.45 | 1:08.55 | 179670 | 184824
23 | 41:04.25 | 0:26.25 | 184825 | 186799
24 | 41:30.50 | 1:25.50 | 186800 | 193224
25 | 42:56.25 | 1:13.22 | 193225 | 198721
26 | 44:09.47 | 0:26.33 | 198722 | 200704
27 | 44:36.05 | 0:52.05 | 200705 | 204609
28 | 45:28.10 | 5:05.40 | 204610 | 227524
29 | 50:33.50 | 2:54.55 | 227525 | 240629
30 | 53:28.30 | 6:29.45 | 240630 | 269849
31 | 59:58.00 | 1:15.50 | 269850 | 275524
32 | 61:13.50 | 2:39.40 | 275525 | 287489
33 | 63:53.15 | 2:06.42 | 287490 | 296981
34 | 65:59.57 | 1:33.08 | 296982 | 303964
35 | 67:32.65 | 1:55.67 | 303965 | 312656
36 | 69:28.57 | 1:36.15 | 312657 | 319871
37 | 71:04.72 | 0:46.05 | 319872 | 323326
38 | 71:51.02 | 6:05.03 | 323327 | 350704


Range status and errors

Selected range

Filename C:\ArlegZ\Biber - Harmonia artificioso-ariosa - Tafelmusik.wav

Peak level 94.3 %
Extraction speed 2.2 X
Range quality 100.0 %
Test CRC D52FE084
Copy CRC D52FE084
Copy OK

No errors occurred


AccurateRip summary

Track 1 accurately ripped (confidence 23) [DC571772] (AR v2)
Track 2 accurately ripped (confidence 23) [72B961D1] (AR v2)
Track 3 accurately ripped (confidence 23) [BBD51ECB] (AR v2)
Track 4 accurately ripped (confidence 23) [A4B9B9C4] (AR v2)
Track 5 accurately ripped (confidence 23) [72163316] (AR v2)
Track 6 accurately ripped (confidence 23) [217A8138] (AR v2)
Track 7 accurately ripped (confidence 23) [2579C3DC] (AR v2)
Track 8 accurately ripped (confidence 23) [0A6F6D99] (AR v2)
Track 9 accurately ripped (confidence 23) [68F58640] (AR v2)
Track 10 accurately ripped (confidence 23) [FEE454C5] (AR v2)
Track 11 accurately ripped (confidence 23) [81600DF9] (AR v2)
Track 12 accurately ripped (confidence 23) [B0F9F904] (AR v2)
Track 13 accurately ripped (confidence 23) [B2347B59] (AR v2)
Track 14 accurately ripped (confidence 23) [E2C12EB7] (AR v2)
Track 15 accurately ripped (confidence 23) [1D5691D9] (AR v2)
Track 16 accurately ripped (confidence 23) [1A769310] (AR v2)
Track 17 accurately ripped (confidence 23) [21C1870D] (AR v2)
Track 18 accurately ripped (confidence 23) [EB4EEC37] (AR v2)
Track 19 accurately ripped (confidence 23) [58893FF1] (AR v2)
Track 20 accurately ripped (confidence 23) [DB13A654] (AR v2)
Track 21 accurately ripped (confidence 23) [689DF90B] (AR v2)
Track 22 accurately ripped (confidence 23) [5CA58503] (AR v2)
Track 23 accurately ripped (confidence 23) [B963AACB] (AR v2)
Track 24 accurately ripped (confidence 23) [6011CEA7] (AR v2)
Track 25 accurately ripped (confidence 23) [CFFD0ACB] (AR v2)
Track 26 accurately ripped (confidence 23) [29519B2B] (AR v2)
Track 27 accurately ripped (confidence 23) [545E3EC7] (AR v2)
Track 28 accurately ripped (confidence 23) [17D0D053] (AR v2)
Track 29 accurately ripped (confidence 23) [C55C2CA4] (AR v2)
Track 30 accurately ripped (confidence 23) [B7B50ABB] (AR v2)
Track 31 accurately ripped (confidence 23) [F44B55C8] (AR v2)
Track 32 accurately ripped (confidence 23) [1052A09A] (AR v2)
Track 33 accurately ripped (confidence 23) [DD59D34A] (AR v2)
Track 34 accurately ripped (confidence 23) [3C44DD07] (AR v2)
Track 35 accurately ripped (confidence 23) [12EDB93E] (AR v2)
Track 36 accurately ripped (confidence 23) [99A3224B] (AR v2)
Track 37 accurately ripped (confidence 23) [8A6C1AE6] (AR v2)
Track 38 accurately ripped (confidence 23) [65B38C2A] (AR v2)

All tracks accurately ripped

End of status report

–– CUETools DB Plugin V2.1.6

[CTDB TOCID: VR1TDKbUTk9l1iMDZFF5SlJt_Yk-] found
Submit result: VR1TDKbUTk9l1iMDZFF5SlJt_Yk- has been confirmed
Track | CTDB Status
1 | (81/81) Accurately ripped
2 | (80/81) Accurately ripped
3 | (80/81) Accurately ripped
4 | (81/81) Accurately ripped
5 | (80/81) Accurately ripped
6 | (81/81) Accurately ripped
7 | (80/81) Accurately ripped
8 | (80/81) Accurately ripped
9 | (81/81) Accurately ripped
10 | (80/81) Accurately ripped
11 | (80/81) Accurately ripped
12 | (80/81) Accurately ripped
13 | (81/81) Accurately ripped
14 | (80/81) Accurately ripped
15 | (81/81) Accurately ripped
16 | (80/81) Accurately ripped
17 | (81/81) Accurately ripped
18 | (81/81) Accurately ripped
19 | (81/81) Accurately ripped
20 | (81/81) Accurately ripped
21 | (81/81) Accurately ripped
22 | (81/81) Accurately ripped
23 | (81/81) Accurately ripped
24 | (81/81) Accurately ripped
25 | (81/81) Accurately ripped
26 | (81/81) Accurately ripped
27 | (80/81) Accurately ripped
28 | (80/81) Accurately ripped
29 | (81/81) Accurately ripped
30 | (81/81) Accurately ripped
31 | (81/81) Accurately ripped
32 | (81/81) Accurately ripped
33 | (81/81) Accurately ripped
34 | (81/81) Accurately ripped
35 | (81/81) Accurately ripped
36 | (81/81) Accurately ripped
37 | (81/81) Accurately ripped
38 | (81/81) Accurately ripped


==== Log checksum 22BF3F28C30A46AA1E843FBDDF56DA3EAB11970422713DAC3EB0DA8E0196ACE9 ====

Jeanne Lamon, Tafelmusik - Heinrich Ignaz Franz Biber: Harmonia artificioso-ariosa (2006)