Subcategories
Tags
Language
Tags

Jeanne Lamon, Tafelmusik - W.F. Bach: Sinfonias; Suite in G minor; Concerto for Harpsichord in D major (1997)

Posted By: ArlegZ
Jeanne Lamon, Tafelmusik - W.F. Bach: Sinfonias; Suite in G minor; Concerto for Harpsichord in D major (1997)

Jeanne Lamon, Charlotte Nediger, Tafelmusik - Wilhelm Friedemann Bach: Sinfonias; Suite in G minor; Concerto for Harpsichord in D major (1997)
EAC | FLAC | Image (Cue & Log) ~ 348 Mb | Total time: 71:41 | Scans included
Classical | Label: Sony Classical | # SK 62720 | Recorded: 1996

The well-known painting of Wilhelm Friedemann Bach reproduced on the cover of this CD must be one of the most immediately attractive composer portraits ever made. The wide-brimmed hat, the fur-lined coat, the wisp of steely hair and, above all, the reddened but unmistakably genial face (displaying, if I’m not mistaken, his father’s nose) suggest a man one would want to accompany straightaway to the nearest coffee-house. But Friedemann was actually a little more complex than that, both as a person who could be lazy and argumentative and as a talented musician torn between the styles of the late baroque and early classical periods, so it is perhaps no surprise to find that there is considerable variety in the music on this disc. The opening Sinfonia in D major is one of those sunnily optimistic works that revel in the splendid new sound of the classical orchestra, but the D minor Sinfonia which follows is a highly serious piece for church use, containing a solemnly drooping fugue. There is also an Ouverture-Suite once attributed (pretty implausibly) to Johann Sebastian which, though undeniably attractive and individual, is now thought unlikely to be by Friedemann either; a quirkily expressive but perhaps rather rambling harpsichord concerto; and a by-now familiarly protean and surprise-filled Sinfonia in F major.
Tafelmusik are the perfect ensemble to perform this music. Like much of it, they delight in sheer orchestral sound, enjoying the advantage themselves of being able to turn it out in particularly pleasing and well-finished form. I would not hesitate to recommend this disc to any lover of eighteenth-century orchestral music.
– Lindsay Kemp

Performer:
Charlotte Nediger, harpsichord
Tafelmusik
Jeanne Lamon, musical director

Track List:
Sinfonia in D major (used as prelude to cantata "Dies ist der Tag"), F. 64 (BR C8)
01. 1. Allegro e maestoso
02. 2. Andante
03. 3. Vivace
04. Sinfonia in D minor ("Adagio and Fugue"), F. 65 (BR C7)
Overture (Suite) for strings & continuo in G minor "No. 5" (doubtful), BWV 1070
05. 1. Ouverture. Larghetto
06. 2. Torneo
07. 3. Aria. Adagio
08. 4. Menuetto alternativo - Trio
09. 5. Capriccio
Harpsichord Concerto in D major, F. 41 (BR C9)
10. 1. Allegro
11. 2. Andante
12. 3. Vivace
Sinfonia for strings in F major ("Dissonant"), F. 67 (BR C2)
13. 1. Vivace
14. 2. Andante
15. 3. Allegro
16. 4. Menuetto 1 & 2


Exact Audio Copy V1.6 from 23. October 2020

EAC extraction logfile from 21. June 2021, 20:19

Jeanne Lamon, Tafelmusik / W.F.Bach - Sinfonias, Suite, Concerto for Harpsichord

Used drive : PIONEER DVD-RW DVR-218L Adapter: 1 ID: 0

Read mode : Secure
Utilize accurate stream : Yes
Defeat audio cache : Yes
Make use of C2 pointers : No

Read offset correction : 6
Overread into Lead-In and Lead-Out : No
Fill up missing offset samples with silence : Yes
Delete leading and trailing silent blocks : No
Null samples used in CRC calculations : Yes
Used interface : Native Win32 interface for Win NT & 2000

Used output format : User Defined Encoder
Selected bitrate : 128 kBit/s
Quality : High
Add ID3 tag : No
Command line compressor : C:\Program Files\Exact Audio Copy\Flac\flac.exe
Additional command line options : -V -8 -T "Date=%year%" -T "Genre=%genre%" %source%


TOC of the extracted CD

Track | Start | Length | Start sector | End sector
––––––––––––––––––––––––––––-
1 | 0:00.00 | 3:55.55 | 0 | 17679
2 | 3:55.55 | 3:15.25 | 17680 | 32329
3 | 7:11.05 | 3:29.70 | 32330 | 48074
4 | 10:41.00 | 9:39.72 | 48075 | 91571
5 | 20:20.72 | 4:35.58 | 91572 | 112254
6 | 24:56.55 | 1:58.15 | 112255 | 121119
7 | 26:54.70 | 5:22.00 | 121120 | 145269
8 | 32:16.70 | 4:48.35 | 145270 | 166904
9 | 37:05.30 | 3:38.25 | 166905 | 183279
10 | 40:43.55 | 5:50.22 | 183280 | 209551
11 | 46:34.02 | 5:34.15 | 209552 | 234616
12 | 52:08.17 | 4:33.70 | 234617 | 255161
13 | 56:42.12 | 4:22.18 | 255162 | 274829
14 | 61:04.30 | 4:48.32 | 274830 | 296461
15 | 65:52.62 | 3:18.50 | 296462 | 311361
16 | 69:11.37 | 2:30.25 | 311362 | 322636


Range status and errors

Selected range

Filename C:\ArlegZ\W.F.Bach - Sinfonias, Suite, Concerto for Harpsichord - Jeanne Lamon.wav

Peak level 61.7 %
Extraction speed 2.1 X
Range quality 100.0 %
Test CRC BA56256E
Copy CRC BA56256E
Copy OK

No errors occurred


AccurateRip summary

Track 1 accurately ripped (confidence 7) [CC0D3C84] (AR v2)
Track 2 accurately ripped (confidence 7) [75C6E1E9] (AR v2)
Track 3 accurately ripped (confidence 7) [B7641F6B] (AR v2)
Track 4 accurately ripped (confidence 7) [DF78DDB2] (AR v2)
Track 5 accurately ripped (confidence 7) [8ABB31C2] (AR v2)
Track 6 accurately ripped (confidence 7) [DF37CA32] (AR v2)
Track 7 accurately ripped (confidence 7) [3237FEA6] (AR v2)
Track 8 accurately ripped (confidence 7) [1BEDA01A] (AR v2)
Track 9 accurately ripped (confidence 7) [2B82C395] (AR v2)
Track 10 accurately ripped (confidence 7) [EA93A218] (AR v2)
Track 11 accurately ripped (confidence 7) [A6913055] (AR v2)
Track 12 accurately ripped (confidence 7) [38CDE5F6] (AR v2)
Track 13 accurately ripped (confidence 7) [2C5E8978] (AR v2)
Track 14 accurately ripped (confidence 7) [A606C163] (AR v2)
Track 15 accurately ripped (confidence 7) [D7A6C38B] (AR v2)
Track 16 accurately ripped (confidence 7) [D1FA01CF] (AR v2)

All tracks accurately ripped

End of status report

–– CUETools DB Plugin V2.1.6

[CTDB TOCID: 3ZUAW28YeR5F3NRCmiuqeaaS42Q-] found
Submit result: 3ZUAW28YeR5F3NRCmiuqeaaS42Q- has been confirmed
Track | CTDB Status
1 | (76/76) Accurately ripped
2 | (76/76) Accurately ripped
3 | (76/76) Accurately ripped
4 | (76/76) Accurately ripped
5 | (76/76) Accurately ripped
6 | (76/76) Accurately ripped
7 | (76/76) Accurately ripped
8 | (76/76) Accurately ripped
9 | (76/76) Accurately ripped
10 | (76/76) Accurately ripped
11 | (76/76) Accurately ripped
12 | (76/76) Accurately ripped
13 | (76/76) Accurately ripped
14 | (76/76) Accurately ripped
15 | (76/76) Accurately ripped
16 | (76/76) Accurately ripped


==== Log checksum B8DF30948D1A7E3CB9293B5B7B440E22FF6400263727E198655B48D7FD77889E ====

Jeanne Lamon, Tafelmusik - W.F. Bach: Sinfonias; Suite in G minor; Concerto for Harpsichord in D major (1997)