Tags
Language
Tags

Jed Wentz, Musica ad Rhenum, Viri Cantores - Willem de Fesch: Joseph (2000)

Posted By: ArlegZ
Jed Wentz, Musica ad Rhenum, Viri Cantores -  Willem de Fesch: Joseph (2000)

Jed Wentz, Musica ad Rhenum, Viri Cantores - Willem de Fesch: Joseph (2000)
EAC | FLAC | Image (Cue & Log) ~ 652 Mb | Total time: 40:17+45:47+54:56 | Scans included
Classical | Label: NM Classics | # NM 92079 | Recorded: 2000

Willem de Fesch (1687-1761) was a virtuoso Dutch violone player and composer. The pupil of Karel Rosier, who was a Vice-Kapellmeister at Bonn, de Fesch later married his daughter, Maria Anna Rosier. De Fesch was active in Amsterdam between 1710 and 1725. From 1725 to 1731 he served as Kapellmeister at Antwerp Cathedral. Thereafter he moved to London where he gave concerts and played the violone in Handel's orchestra in 1746. In 1748 and 1749 he conducted at Marylebone Gardens. He apparently made no public appearances after 1750. His works included the oratorios Judith (1732) and Joseph (1746), as well as chamber duets, solo and trio sonatas, concertos and part songs. Both oratorios were thought lost until 1980 when a copy of a manuscript of "Joseph" was found in London's Royal Academy of Music.

Performer:
Joseph - Claron McFadden
Potiphar's wife - Roberta Alexander
Reuben - Susanna Moncayo von Hase
Potiphar, Ishmaelite - Nico van der Meel
Simeon - Henk Vonk
Jacob, General - Tom Sol
Benjamin, stranger - Sasanna ten Wolde
Gaoler - Jasper Schweppe
Nationaal Kinderkoor
Viri Cantores
Musica ad Rhenum
Conductor - Jed Wentz

Track List:
CD1:
01. Act 1. Overture
02. Rec. Jacob: 'Be ware You Talk no More of these Your Idle Slumbers'
03. Arioso Jacob and Chorus: 'Happy Youth'
04. Rec. Jacob: 'But Hark the Host of Cherubims!'
05. Chorus: 'Happy Youth'
06. Rec. Joseph: 'Alas my Eager Haste to Shew my fond Obedience'
07. Aria Joseph: 'I'll the Lion Dauntless meet'
08. Rec. Joseph: 'And See where sent by Providence a Guide arrives'
09. Aria Joseph.: 'Let me hasten away'
10. Rec. Reuben: 'Surely did not our faintness Tell this world's Great Eye'
11. Aria Reuben: 'Underneath this plantane Shade'
12. Rec. Simeon: 'See in Lucky Moment Comes the Hated Dreamer'
13. Aria Joseph: 'Tremble Shudder at the Guilt'
14. Rec. Reuben: 'With what intreped Air & Reason Argues he'
15. Chorus: 'Let it be so'
16. Rec. Simeon: 'There, Saucy Vanter Sleep Your Fill'
17. Arioso Simeon: 'Dream again of Sun and Moon'
18. Rec. acc. Joseph: 'Oh Barbarous Effect of Jealous pride'
19. Aria Joseph: 'Take me Dying, Silent Grave'
20. Rec. Simeon: 'But a Few paces Farther and we'll find him'
21. Rec. Joseph: 'Alass where am I going?'
22. Aria Ishmaelite: 'O'er the Desarts, O'er the Main'
CD2:
01. Act II. Rec. Reuben: 'These Thorns & Brambles I Remark'd'
02. Aria Reuben: 'O Gracious Lord, O Lord of Israel'
03. Rec. & Aria Jacob: 'Unheard of Carelessness or Dastard Cowardice'
04. Rec. Joseph: 'How wisely Providence Bechequers still our Pilgrimage'
05. Aria Joseph: 'Let me Ever look to Thee'
06. Rec. Joseph: 'But Still one Dread remains not in the least'
07. Aria Potiphar's Wife: 'Such a Lovely prudent Youth'
08. Rec. Joseph: 'Too well, I Dread, I Understand her'
09. Aria Joseph: 'The Mower Calls with Chearfull Note'
10. Rec. acc. Potiphar's Wife: 'Sure I in absence of the Lord'
11. Duetto Potiphar's Wife & Joseph: 'I See what I dare not Say'
12. Rec. acc. Potiphar's Wife: 'Furies! Death and Torture'
13. Aria Potiphar's Wife: 'Dark and Dismal thoughts'
14. Rec. Potiphar's Wife: 'And see where Opportunely Comes'
15. Duetto Potiphar's Wife & Potiphar: 'Revenge inspires me - Honour Fires me'
CD3:
01. Act III. Rec. Joseph: 'What Strange Revolutions Yet'
02. Aria Joseph: 'The Lord who from the Murd'fing knife'
03. Rec. General: 'Where is the pris'ner so renown'd'
04. Aria General: 'Honour, wealth & Power too'
05. Rec. Reuben: 'Oh Racking Torment'
06. Chorus: 'Prostrate on the Earht we'll say'
07. Arioso Reuben: 'Wihe Contrite Heart & weeping Eyes'
08. Rec. Simeon: 'To our Contrition let us add Obedience'
09. Chorus: 'Blow the Fife with Chearful Noise'
10. Rec. General: 'Thus by our Sovereign's Command'
11. Rec. acc. Joseph: 'Ye Lofty Columns, Guilded Roofs'
12. Rec. Joseph: 'But Bless my Eyes!'
13. Aria Joseph: 'Wisdom with its poignant Eye'
14. Rec. Joseph: 'Away with'em'
15. Rec. Joseph: 'How heav'n Show'rs its Blessings on me'
16. Aria Joseph: 'Blood, this hasty Course give O'er'
17. Rec. Joseph: 'I must within Repose my Self to calmness'
18. Rec. Simeon: 'We're now upon Aegyptian Ground'
19. Aria Simeon: 'The Howling wold at Midnight Roams'
20. Rec. Joseph: 'Bring in the Strangers'
21. Aria Benjamin: 'Feeding Flocks upon the plain'
22. Chorus: 'In Your all-Discerning Mind'
23. Rec. Joseph: 'I can withhold no Longer'
24. Aria Joseph: 'Whilst my Rapture I Conceal'
25. Rec. Joseph: 'They do not Yet Discover me'
26. Chorus: 'O heav'ns our Brother'
27. Rec. Joseph: 'Joseph! I pray ye rise'
28. Duetto Joseph & Simeon: 'O Delight beyond Expressing - O unutterable Blessing'
29. Chorus: 'Let us our Gratefull voices raise'


Exact Audio Copy V1.3 from 2. September 2016

EAC extraction logfile from 30. September 2019, 14:29

Jed Wentz, Musica ad Rhenum, Nationaal Kinderkoor, Viri Cantores / Fesch - Joseph CD1

Used drive : HL-DT-STDVDRAM GH24NS95 Adapter: 1 ID: 0

Read mode : Secure
Utilize accurate stream : Yes
Defeat audio cache : Yes
Make use of C2 pointers : No

Read offset correction : 6
Overread into Lead-In and Lead-Out : No
Fill up missing offset samples with silence : Yes
Delete leading and trailing silent blocks : No
Null samples used in CRC calculations : Yes
Used interface : Native Win32 interface for Win NT & 2000

Used output format : User Defined Encoder
Selected bitrate : 128 kBit/s
Quality : High
Add ID3 tag : No
Command line compressor : C:\Program Files\Exact Audio Copy\FLAC\FLAC.EXE
Additional command line options : -V -8 -T "Date=%year%" -T "Genre=%genre%" %source%


TOC of the extracted CD

Track | Start | Length | Start sector | End sector
––––––––––––––––––––––––––––-
1 | 0:00.00 | 3:31.05 | 0 | 15829
2 | 3:31.05 | 1:07.42 | 15830 | 20896
3 | 4:38.47 | 0:50.63 | 20897 | 24709
4 | 5:29.35 | 0:14.10 | 24710 | 25769
5 | 5:43.45 | 1:04.40 | 25770 | 30609
6 | 6:48.10 | 0:45.40 | 30610 | 34024
7 | 7:33.50 | 3:45.27 | 34025 | 50926
8 | 11:19.02 | 0:55.48 | 50927 | 55099
9 | 12:14.50 | 3:29.35 | 55100 | 70809
10 | 15:44.10 | 0:25.70 | 70810 | 72754
11 | 16:10.05 | 4:36.62 | 72755 | 93516
12 | 20:46.67 | 1:35.70 | 93517 | 100711
13 | 22:22.62 | 4:45.13 | 100712 | 122099
14 | 27:08.00 | 0:39.35 | 122100 | 125059
15 | 27:47.35 | 0:09.05 | 125060 | 125739
16 | 27:56.40 | 0:29.45 | 125740 | 127959
17 | 28:26.10 | 0:58.10 | 127960 | 132319
18 | 29:24.20 | 2:20.05 | 132320 | 142824
19 | 31:44.25 | 3:20.55 | 142825 | 157879
20 | 35:05.05 | 0:30.25 | 157880 | 160154
21 | 35:35.30 | 0:36.25 | 160155 | 162879
22 | 36:11.55 | 4:03.30 | 162880 | 181134


Range status and errors

Selected range

Filename C:\ArlegZ\Fesch - Joseph CD1.wav

Peak level 98.3 %
Extraction speed 7.2 X
Range quality 100.0 %
Test CRC 21921306
Copy CRC 21921306
Copy OK

No errors occurred

End of status report

==== Log checksum 8922442CE44894986F627111A54386C7AA928D38C39231AF50728BB375B68855 ====


Exact Audio Copy V1.3 from 2. September 2016

EAC extraction logfile from 30. September 2019, 15:01

Jed Wentz, Musica ad Rhenum, Nationaal Kinderkoor, Viri Cantores / Fesch - Joseph CD2

Used drive : HL-DT-STDVDRAM GH24NS95 Adapter: 1 ID: 0

Read mode : Secure
Utilize accurate stream : Yes
Defeat audio cache : Yes
Make use of C2 pointers : No

Read offset correction : 6
Overread into Lead-In and Lead-Out : No
Fill up missing offset samples with silence : Yes
Delete leading and trailing silent blocks : No
Null samples used in CRC calculations : Yes
Used interface : Native Win32 interface for Win NT & 2000

Used output format : User Defined Encoder
Selected bitrate : 128 kBit/s
Quality : High
Add ID3 tag : No
Command line compressor : C:\Program Files\Exact Audio Copy\FLAC\FLAC.EXE
Additional command line options : -V -8 -T "Date=%year%" -T "Genre=%genre%" %source%


TOC of the extracted CD

Track | Start | Length | Start sector | End sector
––––––––––––––––––––––––––––-
1 | 0:00.00 | 1:56.40 | 0 | 8739
2 | 1:56.40 | 6:18.35 | 8740 | 37124
3 | 8:15.00 | 5:07.00 | 37125 | 60149
4 | 13:22.00 | 1:02.30 | 60150 | 64829
5 | 14:24.30 | 5:36.50 | 64830 | 90079
6 | 20:01.05 | 1:31.25 | 90080 | 96929
7 | 21:32.30 | 7:20.02 | 96930 | 129931
8 | 28:52.32 | 0:31.68 | 129932 | 132324
9 | 29:24.25 | 3:16.20 | 132325 | 147044
10 | 32:40.45 | 0:40.10 | 147045 | 150054
11 | 33:20.55 | 1:32.40 | 150055 | 156994
12 | 34:53.20 | 1:06.40 | 156995 | 161984
13 | 35:59.60 | 5:20.10 | 161985 | 185994
14 | 41:19.70 | 0:38.55 | 185995 | 188899
15 | 41:58.50 | 3:47.07 | 188900 | 205931


Range status and errors

Selected range

Filename C:\ArlegZ\Fesch - Joseph CD2.wav

Peak level 100.0 %
Extraction speed 7.4 X
Range quality 100.0 %
Test CRC 834A8475
Copy CRC 834A8475
Copy OK

No errors occurred

End of status report

==== Log checksum FE5FC7D5071F2920B303F9C269DEC61E4F4A4AA06705C42D542BD00F897B7181 ====


Exact Audio Copy V1.3 from 2. September 2016

EAC extraction logfile from 30. September 2019, 15:31

Jed Wentz, Musica ad Rhenum, Nationaal Kinderkoor, Viri Cantores / Fesch - Joseph CD3

Used drive : HL-DT-STDVDRAM GH24NS95 Adapter: 1 ID: 0

Read mode : Secure
Utilize accurate stream : Yes
Defeat audio cache : Yes
Make use of C2 pointers : No

Read offset correction : 6
Overread into Lead-In and Lead-Out : No
Fill up missing offset samples with silence : Yes
Delete leading and trailing silent blocks : No
Null samples used in CRC calculations : Yes
Used interface : Native Win32 interface for Win NT & 2000

Used output format : User Defined Encoder
Selected bitrate : 128 kBit/s
Quality : High
Add ID3 tag : No
Command line compressor : C:\Program Files\Exact Audio Copy\FLAC\FLAC.EXE
Additional command line options : -V -8 -T "Date=%year%" -T "Genre=%genre%" %source%


TOC of the extracted CD

Track | Start | Length | Start sector | End sector
––––––––––––––––––––––––––––-
1 | 0:00.00 | 0:28.20 | 0 | 2119
2 | 0:28.20 | 2:19.27 | 2120 | 12571
3 | 2:47.47 | 0:49.38 | 12572 | 16284
4 | 3:37.10 | 5:31.10 | 16285 | 41119
5 | 9:08.20 | 1:21.30 | 41120 | 47224
6 | 10:29.50 | 0:16.00 | 47225 | 48424
7 | 10:45.50 | 0:22.35 | 48425 | 50109
8 | 11:08.10 | 0:16.37 | 50110 | 51346
9 | 11:24.47 | 3:44.28 | 51347 | 68174
10 | 15:09.00 | 0:34.60 | 68175 | 70784
11 | 15:43.60 | 1:19.65 | 70785 | 76774
12 | 17:03.50 | 1:14.55 | 76775 | 82379
13 | 18:18.30 | 3:53.37 | 82380 | 99891
14 | 22:11.67 | 1:59.23 | 99892 | 108839
15 | 24:11.15 | 0:19.60 | 108840 | 110324
16 | 24:31.00 | 4:29.40 | 110325 | 130539
17 | 29:00.40 | 0:19.35 | 130540 | 131999
18 | 29:20.00 | 0:12.55 | 132000 | 132954
19 | 29:32.55 | 2:04.20 | 132955 | 142274
20 | 31:37.00 | 1:49.35 | 142275 | 150484
21 | 33:26.35 | 4:25.35 | 150485 | 170394
22 | 37:51.70 | 0:22.22 | 170395 | 172066
23 | 38:14.17 | 0:21.58 | 172067 | 173699
24 | 38:36.00 | 5:33.10 | 173700 | 198684
25 | 44:09.10 | 0:14.45 | 198685 | 199779
26 | 44:23.55 | 0:22.00 | 199780 | 201429
27 | 44:45.55 | 2:04.55 | 201430 | 210784
28 | 46:50.35 | 5:27.42 | 210785 | 235351
29 | 52:18.02 | 2:36.25 | 235352 | 247076


Range status and errors

Selected range

Filename C:\ArlegZ\Fesch - Joseph CD3.wav

Peak level 100.0 %
Extraction speed 7.0 X
Range quality 100.0 %
Test CRC E91C84C6
Copy CRC E91C84C6
Copy OK

No errors occurred

End of status report

==== Log checksum 6433DD9626CC6E220C191F2B9A5833E308A4ADA1DC055C06D443AAC3E123139A ====

Jed Wentz, Musica ad Rhenum, Viri Cantores -  Willem de Fesch: Joseph (2000)

Thanks to the original releaser