Tags
Language
Tags

Jeff Beck - Live at the Hollywood Bowl (2017) {2CD}

Posted By: SERTiL
Jeff Beck - Live at the Hollywood Bowl (2017) {2CD}

Jeff Beck - Live at the Hollywood Bowl
EAC Rip | FLAC (image)+cue, log, covers | 92:42 min | 842 MB
Label: Eagle Vision ‎– EAGDV090 | Tracks: 21 | Rls.date: 2017
Classic Rock, Blues Rock

In the summer of 2016, Jeff Beck celebrated 50 years of his musical career with a special concert at the famous Hollywood Bowl. The setlist reached back to his first recordings with The Yardbirds in 1966 and came right up to date with tracks from his most recent album Loud Hailer. As the evening progressed he was joined by many of the great musicians he has collaborated with over the years including Billy F. Gibbons, Buddy Guy, Jimmy Hall, Jan Hammer, Beth Hart and Steven Tyler. The show climaxed with the guests all joining forces for an exhilarating encore performance of Purple Rain in tribute to Prince, who had passed away a couple of months before the concert.

Jeff Beck - Live at the Hollywood Bowl (2017) {2CD}


Tracklist Disc 1:
1. The Revolution Will Be Televised 3:31
2. Over Under Sideways Down 2:29
3. Heart Full Of Soul 1:49
4. For Your Love 2:37
5. Beck's Bolero 3:24
6. Rice Pudding / Morning Dew 5:29
7. Freeway Jam 5:01
8. You Never Know 2:48
9. Cause We've Ended As Lovers 3:57
10. Star Cycle 5:57
11. Blue Wind 4:22
12. Big Block 5:05

Jeff Beck - Live at the Hollywood Bowl (2017) {2CD}


Tracklist Disc 2:
1. I'd Rather Go Blind 7:06
2. Let Me Love You 4:36
3. Live In The Dark 4:22
4. Scared For The Children 6:22
5. Rough Boy 5:11
6. Train Kept A-Rollin' 3:23
7. Shapes Of Things 3:05
8. A Day In The Life 5:23
9. Purple Rain 6:40

Exact Audio Copy V1.3 from 2. September 2016

Отчёт EAC об извлечении, выполненном 8. ноября 2017, 0:12

Jeff Beck / Live At The Hollywood Bowl (Disc 1)

Дисковод: ATAPI iHAS122 C Adapter: 1 ID: 0

Режим чтения : Достоверность
Использование точного потока : Да
Отключение кэша аудио : Да
Использование указателей C2 : Нет

Коррекция смещения при чтении : 48
Способность читать области Lead-in и Lead-out : Нет
Заполнение пропущенных сэмплов тишиной : Да
Удаление блоков с тишиной в начале и конце : Нет
При вычислениях CRC использовались нулевые сэмплы : Да
Интерфейс : Встроенный Win32-интерфейс для Win NT/2000

Выходной формат : Пользовательский кодировщик
Выбранный битрейт : 768 kBit/s
Качество : Высокий
Добавление ID3-тега : Нет
Утилита сжатия : C:\Program Files\Exact Audio Copy\FLAC\FLAC.EXE
Дополнительные параметры : -6 -V -T "ARTIST=%artist%" -T "TITLE=%title%" -T "ALBUM=%albumtitle%" -T "DATE=%year%" -T "TRACKNUMBER=%tracknr%" -T "GENRE=%genre%" -T "COMMENT=%comment%" -T "BAND=%albuminterpret%" -T "ALBUMARTIST=%albuminterpret%" -T "COMPOSER=%composer%" %haslyrics%–tag-from-file=LYRICS="%lyricsfile%"%haslyrics% -T "DISCNUMBER=%cdnumber%" -T "TOTALDISCS=%totalcds%" -T "TOTALTRACKS=%numtracks%" %hascover%–picture="%coverfile%"%hascover% %source% -o %dest%


TOC извлечённого CD

Трек | Старт | Длительность | Начальный сектор | Конечный сектор
––––––––––––––––––––––––––––––––––-
1 | 0:00.00 | 3:31.65 | 0 | 15889
2 | 3:31.65 | 2:29.01 | 15890 | 27065
3 | 6:00.66 | 1:49.54 | 27066 | 35294
4 | 7:50.45 | 2:36.73 | 35295 | 47067
5 | 10:27.43 | 3:24.02 | 47068 | 62369
6 | 13:51.45 | 5:28.74 | 62370 | 87043
7 | 19:20.44 | 5:01.08 | 87044 | 109626
8 | 24:21.52 | 2:48.04 | 109627 | 122230
9 | 27:09.56 | 3:57.17 | 122231 | 140022
10 | 31:06.73 | 5:57.10 | 140023 | 166807
11 | 37:04.08 | 4:22.30 | 166808 | 186487
12 | 41:26.38 | 5:05.34 | 186488 | 209396


Характеристики диапазона извлечения и сообщения об ошибках

Выбранный диапазон

Имя файла F:\My Uploads 03.10.17\Jeff Beck - Live At The Hollywood Bowl - 2017 2CD\Live At The Hollywood Bowl (Disc 1) 2017 46'33''\Jeff Beck - Live At The Hollywood Bowl (Disc 1).wav

Пиковый уровень 97.9 %
Скорость извлечения 3.2 X
Качество диапазона 100.0 %
CRC теста 534BA247
CRC копии 534BA247
Копирование… OK

Ошибок не произошло

Конец отчёта

–– CUETools DB Plugin V2.1.6

[CTDB TOCID: sohNrZK0nFtivveois3sRdTZ4x0-] found
Submit result: sohNrZK0nFtivveois3sRdTZ4x0- has been confirmed
Track | CTDB Status
1 | (27/27) Accurately ripped
2 | (27/27) Accurately ripped
3 | (27/27) Accurately ripped
4 | (27/27) Accurately ripped
5 | (27/27) Accurately ripped
6 | (27/27) Accurately ripped
7 | (27/27) Accurately ripped
8 | (27/27) Accurately ripped
9 | (27/27) Accurately ripped
10 | (27/27) Accurately ripped
11 | (27/27) Accurately ripped
12 | (27/27) Accurately ripped


==== Контрольная сумма отчёта E1A587EAA24F7DD9A4E5B4E074DE029F03692FAB46B29DF44FA9FEDC4E3BF064 ====

Exact Audio Copy V1.3 from 2. September 2016

Отчёт EAC об извлечении, выполненном 8. ноября 2017, 1:17

Jeff Beck / Live At The Hollywood Bowl (Disc 2)

Дисковод: ASUS DRW-24B3ST Adapter: 1 ID: 0

Режим чтения : Достоверность
Использование точного потока : Да
Отключение кэша аудио : Да
Использование указателей C2 : Нет

Коррекция смещения при чтении : 6
Способность читать области Lead-in и Lead-out : Нет
Заполнение пропущенных сэмплов тишиной : Да
Удаление блоков с тишиной в начале и конце : Нет
При вычислениях CRC использовались нулевые сэмплы : Да
Интерфейс : Встроенный Win32-интерфейс для Win NT/2000

Выходной формат : Пользовательский кодировщик
Выбранный битрейт : 768 kBit/s
Качество : Высокий
Добавление ID3-тега : Нет
Утилита сжатия : C:\Program Files (x86)\Exact Audio Copy\FLAC\FLAC.EXE
Дополнительные параметры : -6 -V -T "ARTIST=%artist%" -T "TITLE=%title%" -T "ALBUM=%albumtitle%" -T "DATE=%year%" -T "TRACKNUMBER=%tracknr%" -T "GENRE=%genre%" -T "COMMENT=%comment%" -T "BAND=%albuminterpret%" -T "ALBUMARTIST=%albuminterpret%" -T "COMPOSER=%composer%" %haslyrics%–tag-from-file=LYRICS="%lyricsfile%"%haslyrics% -T "DISCNUMBER=%cdnumber%" -T "TOTALDISCS=%totalcds%" -T "TOTALTRACKS=%numtracks%" %hascover%–picture="%coverfile%"%hascover% %source% -o %dest%


TOC извлечённого CD

Трек | Старт | Длительность | Начальный сектор | Конечный сектор
––––––––––––––––––––––––––––––––––-
1 | 0:00.00 | 7:06.63 | 0 | 32012
2 | 7:06.63 | 4:36.10 | 32013 | 52722
3 | 11:42.73 | 4:22.56 | 52723 | 72428
4 | 16:05.54 | 6:22.09 | 72429 | 101087
5 | 22:27.63 | 5:11.10 | 101088 | 124422
6 | 27:38.73 | 3:23.17 | 124423 | 139664
7 | 31:02.15 | 3:05.02 | 139665 | 153541
8 | 34:07.17 | 5:23.49 | 153542 | 177815
9 | 39:30.66 | 6:40.56 | 177816 | 207871


Характеристики диапазона извлечения и сообщения об ошибках

Выбранный диапазон

Имя файла C:\Users\PENTIUM\Desktop\Jeff Beck-2\Jeff Beck - Live At The Hollywood Bowl (Disc 2).wav

Пиковый уровень 99.2 %
Скорость извлечения 3.2 X
Качество диапазона 100.0 %
CRC теста 474A45B4
CRC копии 474A45B4
Копирование… OK

Ошибок не произошло

Конец отчёта

–– CUETools DB Plugin V2.1.6

[CTDB TOCID: 2Nx4Dx4UIkllJoodnAd4wQG8XhI-] found
Submit result: 2Nx4Dx4UIkllJoodnAd4wQG8XhI- has been confirmed
Track | CTDB Status
1 | (26/26) Accurately ripped
2 | (26/26) Accurately ripped
3 | (26/26) Accurately ripped
4 | (26/26) Accurately ripped
5 | (26/26) Accurately ripped
6 | (26/26) Accurately ripped
7 | (26/26) Accurately ripped
8 | (26/26) Accurately ripped
9 | (26/26) Accurately ripped


==== Контрольная сумма отчёта BD9632D4A80902544CF2D66BADE78B8A5C1696AF3BCBBB60108AB6F8368231C2 ====


Jeff Beck - Live at the Hollywood Bowl (2017) {2CD}


Thanks to the Original customer.