Subcategories

Jennifer Paige - Starflower (2017)

Posted By: SERTiL
Jennifer Paige - Starflower (2017)

Jennifer Paige - Starflower
EAC Rip | FLAC (tracks)+cue, log, m3u, artwork | 39:02 min | 364 MB
Label: Tone Tree Music ‎– 859718272908 | Tracks: 10 | Rls.date: 2017
Pop, Singer-Songwriter

2017 release. For Jennifer Paige, Starflower is about sharing a deeper part of herself and rounding out her story musically. With a set of ten emotionally resonant new songs, Paige both covers ground about what she's experienced in recent years, and fully looks to the future as she redefines herself as an independent artist. "It starts and ends with the music.", Paige says. Her intent was to create a cohesive album, simple and direct, that let's the song shine and her voice carry the weight. The striking range and natural power of her vocals, combined with the hard-won strength of her lyrics achieve exactly that, aided by the skillful work of producer Jeremy Bose (Ingrid Michaelson, Joy Williams, Trent Dabbs, etc.), with whom Paige co-wrote the new songs. The last of the new tracks is the ethereal instrumental "If We Be Still." Stella Rose's coos can be heard in the background. "Even though this album covers a lot of emotions," says Paige, "I wanted to finish the album by expressing a sense of peace. I'm thankful for everything that I've experienced so far, and I'm excited for the future." Underscoring that sentiment, the album closes with Bose's acoustic mix of "Crush," recasting it with a serene dreaminess that infuses the song with new life."I like the original, and never wanted to re-record it until now," says Paige. "I love the way it turned out - I tip my hat to the past, and to what brings me here today."

Pop singer/songwriter Jennifer Paige was born and raised in Atlanta, Georgia. At age eight, she began performing in local coffeehouses as part of a duo with her older brother, Chance Scoggins. Two years later, she began studying piano. A short time after moving to Los Angeles, Paige teamed with producer Andy Goldmark and began work on her self-titled debut LP in 1996. Originally released on the German indie label Edel, Jennifer Paige was issued in the U.S. on Hollywood Records in 1998. The album spawned the international chart-topping single "Crush," which would become her best-known hit.

By the new millennium, she was in her early twenties and moving beyond the mainstream teen pop that made her a star. Released in fall 2001, second album Positively Somewhere reflected Paige's fresh and sophisticated musical direction. The reception in Europe and Asia was positive, but the LP suffered from poor promotion in her home country. Although a quick label release – Flowers: The Hits Collection – was issued by Edel in 2003, Paige retreated to the background, songwriting for other artists. In 2008, she returned with Best Kept Secret, which featured the singles "Wasted" and "Ta Voix (The Calling)," as well as a duet with Nick Carter titled "Beautiful Lie."

In 2010 she formed the duo Paige & Palermo with Coury Palermo. In addition to 2013's Stay EP, they also recorded a pair of Christmas covers ("Silent Night" and "Have Yourself a Merry Little Christmas"). The former featured on Paige's own 2012 seasonal release, Holiday. After a lengthy period of silence and a crowdfunding campaign launched in 2015, Paige returned with her fifth studio full-length, Starflower, which was released in 2017. ~ Jason Ankeny & Neil Z. Yeung

Jennifer Paige - Starflower (2017)


TRACKLIST
1. The Devil’s in the Details (05:19)
2. Forget Me Not (03:10)
3. Let Me Love You (03:46)
4. Like a Bomb (04:16)
5. Up at Night (03:52)
6. Starflower (04:19)
7. To the Madness (04:19)
8. Can't Keep You Here (feat. Coury Palermo) (03:12)
9. January (03:43)
10. If We Be Still (03:06)
11. Crush (Acoustic) (03:38)

Exact Audio Copy V1.1 from 23. June 2015

EAC extraction logfile from 25. April 2017, 13:17

Jennifer Paige / Starflower

Used drive : slimtype eTDU108 1 Adapter: 1 ID: 0

Read mode : Secure
Utilize accurate stream : Yes
Defeat audio cache : Yes
Make use of C2 pointers : No

Read offset correction : 6
Overread into Lead-In and Lead-Out : No
Fill up missing offset samples with silence : Yes
Delete leading and trailing silent blocks : No
Null samples used in CRC calculations : Yes
Used interface : Native Win32 interface for Win NT & 2000
Gap handling : Appended to previous track

Used output format : User Defined Encoder
Selected bitrate : 1024 kBit/s
Quality : High
Add ID3 tag : No
Command line compressor : C:\Program Files (x86)\Exact Audio Copy\FLAC\FLAC.EXE
Additional command line options : -6 -V -T "ARTIST=%artist%" -T "TITLE=%title%" -T "ALBUM=%albumtitle%" -T "DATE=%year%" -T "TRACKNUMBER=%tracknr%" -T "GENRE=%genre%" -T "COMMENT=%comment%" -T "BAND=%albuminterpret%" -T "ALBUMARTIST=%albuminterpret%" -T "COMPOSER=%composer%" %haslyrics%–tag-from-file=LYRICS="%lyricsfile%"%haslyrics% -T "DISCNUMBER=%cdnumber%" -T "TOTALDISCS=%totalcds%" -T "TOTALTRACKS=%numtracks%" %hascover%–picture="%coverfile%"%hascover% %source% -o %dest%


TOC of the extracted CD

Track | Start | Length | Start sector | End sector
––––––––––––––––––––––––––––-
1 | 0:00.00 | 5:19.61 | 0 | 23985
2 | 5:19.61 | 3:10.71 | 23986 | 38306
3 | 8:30.57 | 3:46.08 | 38307 | 55264
4 | 12:16.65 | 4:16.45 | 55265 | 74509
5 | 16:33.35 | 3:52.15 | 74510 | 91924
6 | 20:25.50 | 4:19.39 | 91925 | 111388
7 | 24:45.14 | 4:19.47 | 111389 | 130860
8 | 29:04.61 | 3:12.16 | 130861 | 145276
9 | 32:17.02 | 3:43.36 | 145277 | 162037
10 | 36:00.38 | 3:06.49 | 162038 | 176036


Track 1

Filename D:\My Music\barca008\Jennifer Paige - Starflower\01 - Devil's in the Details.wav

Pre-gap length 0:00:02.00

Peak level 99.8 %
Extraction speed 2.7 X
Track quality 100.0 %
Test CRC A773245B
Copy CRC A773245B
Track not present in AccurateRip database
Copy OK

Track 2

Filename D:\My Music\barca008\Jennifer Paige - Starflower\02 - Forget Me Not.wav

Peak level 99.8 %
Extraction speed 2.9 X
Track quality 100.0 %
Test CRC FC570252
Copy CRC FC570252
Track not present in AccurateRip database
Copy OK

Track 3

Filename D:\My Music\barca008\Jennifer Paige - Starflower\03 - Let Me Love You.wav

Peak level 99.8 %
Extraction speed 2.4 X
Track quality 99.9 %
Test CRC 82CC99A3
Copy CRC 82CC99A3
Track not present in AccurateRip database
Copy OK

Track 4

Filename D:\My Music\barca008\Jennifer Paige - Starflower\04 - Like a Bomb.wav

Peak level 100.0 %
Extraction speed 2.7 X
Track quality 99.9 %
Test CRC 8263D077
Copy CRC 8263D077
Track not present in AccurateRip database
Copy OK

Track 5

Filename D:\My Music\barca008\Jennifer Paige - Starflower\05 - Up at Night.wav

Peak level 99.8 %
Extraction speed 3.6 X
Track quality 100.0 %
Test CRC 7BC4961D
Copy CRC 7BC4961D
Track not present in AccurateRip database
Copy OK

Track 6

Filename D:\My Music\barca008\Jennifer Paige - Starflower\06 - Starflower.wav

Peak level 99.8 %
Extraction speed 3.8 X
Track quality 100.0 %
Test CRC 792C763D
Copy CRC 792C763D
Track not present in AccurateRip database
Copy OK

Track 7

Filename D:\My Music\barca008\Jennifer Paige - Starflower\07 - To the Madness.wav

Peak level 99.8 %
Extraction speed 3.2 X
Track quality 99.9 %
Test CRC B3F1235C
Copy CRC B3F1235C
Track not present in AccurateRip database
Copy OK

Track 8

Filename D:\My Music\barca008\Jennifer Paige - Starflower\08 - Can't Keep You Here.wav

Peak level 99.8 %
Extraction speed 3.1 X
Track quality 99.9 %
Test CRC CA5A5800
Copy CRC CA5A5800
Track not present in AccurateRip database
Copy OK

Track 9

Filename D:\My Music\barca008\Jennifer Paige - Starflower\09 - January.wav

Peak level 99.8 %
Extraction speed 4.3 X
Track quality 100.0 %
Test CRC BB901B5A
Copy CRC BB901B5A
Track not present in AccurateRip database
Copy OK

Track 10

Filename D:\My Music\barca008\Jennifer Paige - Starflower\10 - If We Be Still.wav

Peak level 99.8 %
Extraction speed 4.3 X
Track quality 100.0 %
Test CRC 6C9DEE75
Copy CRC 6C9DEE75
Track not present in AccurateRip database
Copy OK


None of the tracks are present in the AccurateRip database

No errors occurred

End of status report

–– CUETools DB Plugin V2.1.6

[CTDB TOCID: m00T96j.Z.m_BIorOYpX.z_ZZxM-] disk not present in database
Submit result: m00T96j.Z.m_BIorOYpX.z_ZZxM- has been uploaded


==== Log checksum 616A721953D083F9BA010C79193F7965A468F717BE7B0AA96D9906145D06FA60 ====


Jennifer Paige - Starflower (2017)


Thanks to the Original customer.