Subcategories

Jethro Tull - Live At Montreux (2003) [BDRip, 720p]

Posted By: v3122
Jethro Tull - Live At Montreux (2003) [BDRip, 720p]

Jethro Tull - Live At Montreux (2003
MKV: 1280x720 (16/9) 29.97fps | DTS, 6 ch, 1 536 kbps
Progressive Rock | 01:56:37 | ~ 8.54 Gb

Jethro Tull is one of the most successful British acts of all time with a career reaching from the late sixties to the present day. In 2003 they made their first (and so far, only) visit to the Montreux Festival. Split into a semi-acoustic first half and a full on electric second half, the concert was a triumph combining newer songs such as "Dot Com", "Pavane" and "Budapest" with classic favorites. As ever Ian Anderson leads from the front with his instantly recognizable voice and inimitable style of one-legged flute playing.
Jethro Tull - Live At Montreux (2003:

Tracklist:

01. Some Day The Sun Won't Shine For You
02. Life Is A Long Song
03. Bouree (Version de Noel)
04. With You There To Help Me
05. Pavane
06. Empty Cafe
07. Hunting Girl
08. Eurology
09. Dot Com
10. God Rest Ye Merry Gentlemen
11. Fat Man
12. Living In The Past
13. Nothing Is Easy
14. Beside Myself
15. My God
16. Budapest
17. New Jig
18. Aqualung
19. Locomotive Breath

General
Unique ID : 183997297207156606980563594233779524291 (0x8A6C9726EDCD4A5798D1E54DF37312C3)
Complete name : W:\UP\Mix\Jethro Tull 2008 - Live at Montreux\Jethro Tull.Live At Montreux. 2003.720р.DTS.mkv
Format : Matroska
Format version : Version 1
File size : 7.95 GiB
Duration : 1h 56mn
Overall bit rate : 9 755 Kbps
Encoded date : UTC 2008-11-19 06:31:43
Writing application : mkvmerge v2.2.0 ('Turn It On Again') built on Mar 4 2008 12:58:26
Writing library : libebml v0.7.7 + libmatroska v0.8.1

Video
ID : 1
Format : AVC
Format/Info : Advanced Video Codec
Format profile : High@L3.2
Format settings, CABAC : Yes
Format settings, ReFrames : 5 frames
Format settings, GOP : N=1
Codec ID : V_MPEG4/ISO/AVC
Duration : 1h 56mn
Bit rate : 8 249 Kbps
Width : 1 280 pixels
Height : 720 pixels
Display aspect ratio : 16:9
Frame rate mode : Constant
Frame rate : 29.970 fps
Color space : YUV
Chroma subsampling : 4:2:0
Bit depth : 8 bits
Scan type : Progressive
Bits/(Pixel*Frame) : 0.299
Stream size : 6.56 GiB (83%)
Writing library : x264 core 65 r998M 6768543
Encoding settings : cabac=1 / ref=5 / deblock=1:-3:-3 / analyse=0x3:0x133 / me=umh / subme=7 / psy_rd=1.0:0.0 / mixed_ref=1 / me_range=24 / chroma_me=1 / trellis=1 / 8x8dct=1 / cqm=2 / deadzone=21,11 / chroma_qp_offset=-2 / threads=6 / nr=0 / decimate=0 / mbaff=0 / bframes=3 / b_pyramid=1 / b_adapt=1 / b_bias=0 / direct=3 / wpredb=1 / keyint=250 / keyint_min=25 / scenecut=40(pre) / rc=2pass / bitrate=8249 / ratetol=1.0 / qcomp=0.60 / qpmin=10 / qpmax=51 / qpstep=4 / cplxblur=20.0 / qblur=0.5 / ip_ratio=1.40 / pb_ratio=1.30 / aq=1:1.00
Language : English
Default : Yes
Forced : No

Audio
ID : 2
Format : DTS
Format/Info : Digital Theater Systems
Mode : 16
Format settings, Endianness : Big
Codec ID : A_DTS
Duration : 1h 56mn
Bit rate mode : Constant
Bit rate : 1 509 Kbps
Channel(s) : 6 channels
Channel positions : Front: L C R, Side: L R, LFE
Sampling rate : 48.0 KHz
Bit depth : 24 bits
Compression mode : Lossy
Stream size : 1.23 GiB (15%)
Default : Yes
Forced : No



Jethro Tull - Live At Montreux (2003) [BDRip, 720p]

Jethro Tull - Live At Montreux (2003) [BDRip, 720p]

Jethro Tull - Live At Montreux (2003) [BDRip, 720p]

Jethro Tull - Live At Montreux (2003) [BDRip, 720p]

Jethro Tull - Live At Montreux (2003) [BDRip, 720p]

Jethro Tull - Live At Montreux (2003) [BDRip, 720p]

All thanks go to the original releaser

Jethro Tull or Jethro Tull in my Blog

Download Jethro Tull - Live At Montreux (2003: