Subcategories

Jethro Tull - Living in the Past (1972)

Posted By: v3122
Jethro Tull - Living in the Past (1972)

Jethro Tull - Living in the Past (1972)
EAC | Flac(Image) + Cue + Log & MP3 CBR 320Kbps
1990 | Chrysalis, CDP 32 1575 2 | ~ 430 or 177 Mb | Artwork(jpg) -> 33 Mb
Progressive Rock / Progressive Folk Rock

Listen to this collection, put together to capitalize on the explosive growth in the group's audience after Aqualung, and it's easy to understand just how fine a group Jethro Tull was in the early '70s. Most of the songs, apart from a few heavily played album tracks ("Song for Jeffrey," etc.) and a pair of live tracks from a 1970 Carnegie Hall show, came off of singles and EPs that, apart from the title song, were scarcely known in America, and it's all so solid that it needs no apology or explanation. Not only was Ian Anderson writing solid songs every time out, but the group's rhythm section was about the best in progressive rock's pop division. Along with any of the group's first five albums, this collection is seminal and essential to any Tull collection, and the only compilation by the group that is a must-own disc.

by Bruce Eder, allmusic
Jethro Tull - Living in the Past (1972):

Jethro Tull - Living in the Past (1972)

Tracklist:

01. Song For Jeffrey (3:24)
02. Love Story (3:07)
03. Christmas Song (3:09)
04. Living In The Past (3:23)
05. Driving Song (2:43)
06. Sweet Dream (4:06)
07. Singing All Day (3:07)
08. Witches Promise (3:49)
09. Inside (3:52)
10. Just Trying To Be (1:37)
11. By Kind Permission Of (Live) (10:10)
12. Dharma For One (Live) (9:58)
13. Wond'ring Again (4:15)
14. Locomotive Breath (4:28)
15. Life Is A Long Song (3:21)
16. Up The 'Pool (3:15)
17. Dr. Bogenbroom (3:01)
18. For Later (2:08)
19. Nursie (1:35)

Exact Audio Copy V1.3 from 2. September 2016

EAC extraction logfile from 7. November 2018, 16:08

Jethro Tull / Living in the Past (CDP 32 1575 2)

Used drive : HL-DT-STDVDRAM GE20NU11 Adapter: 1 ID: 0

Read mode : Secure
Utilize accurate stream : Yes
Defeat audio cache : Yes
Make use of C2 pointers : No

Read offset correction : 667
Overread into Lead-In and Lead-Out : No
Fill up missing offset samples with silence : Yes
Delete leading and trailing silent blocks : No
Null samples used in CRC calculations : Yes
Used interface : Native Win32 interface for Win NT & 2000

Used output format : User Defined Encoder
Selected bitrate : 896 kBit/s
Quality : High
Add ID3 tag : No
Command line compressor : C:\Program Files\Exact Audio Copy\Flac\flac.exe
Additional command line options : -V -8 -T "Date=%year%" -T "Genre=%genre%" %source%


TOC of the extracted CD

Track | Start | Length | Start sector | End sector
––––––––––––––––––––––––––––-
1 | 0:00.62 | 3:24.48 | 62 | 15409
2 | 3:25.35 | 3:07.02 | 15410 | 29436
3 | 6:32.37 | 3:09.05 | 29437 | 43616
4 | 9:41.42 | 3:23.33 | 43617 | 58874
5 | 13:05.00 | 2:43.52 | 58875 | 71151
6 | 15:48.52 | 4:06.03 | 71152 | 89604
7 | 19:54.55 | 3:07.05 | 89605 | 103634
8 | 23:01.60 | 3:49.17 | 103635 | 120826
9 | 26:51.02 | 3:52.53 | 120827 | 138279
10 | 30:43.55 | 1:37.00 | 138280 | 145554
11 | 32:20.55 | 10:10.20 | 145555 | 191324
12 | 42:31.00 | 9:58.07 | 191325 | 236181
13 | 52:29.07 | 4:15.45 | 236182 | 255351
14 | 56:44.52 | 4:28.48 | 255352 | 275499
15 | 61:13.25 | 3:21.57 | 275500 | 290631
16 | 64:35.07 | 3:15.15 | 290632 | 305271
17 | 67:50.22 | 3:01.10 | 305272 | 318856
18 | 70:51.32 | 2:08.35 | 318857 | 328491
19 | 72:59.67 | 1:35.60 | 328492 | 335676


Range status and errors

Selected range

Filename Z:\OdW\Jethro Tull\1972 - Living in the Past (CDP 32 1575 2)\Jethro Tull - Living in the Past (CDP 32 1575 2).wav

Peak level 97.6 %
Extraction speed 7.5 X
Range quality 99.9 %
Test CRC 6A61F28F
Copy CRC 6A61F28F
Copy OK

No errors occurred


AccurateRip summary

Track 1 accurately ripped (confidence 45) [E242D05F] (AR v2)
Track 2 accurately ripped (confidence 46) [BF6FF42D] (AR v2)
Track 3 accurately ripped (confidence 46) [042D0C39] (AR v2)
Track 4 accurately ripped (confidence 46) [79917B80] (AR v2)
Track 5 accurately ripped (confidence 46) [0FAA091F] (AR v2)
Track 6 accurately ripped (confidence 46) [FCA0BE48] (AR v2)
Track 7 accurately ripped (confidence 46) [F208173A] (AR v2)
Track 8 accurately ripped (confidence 46) [FDA600E0] (AR v2)
Track 9 accurately ripped (confidence 46) [FEC81EE2] (AR v2)
Track 10 accurately ripped (confidence 46) [017EBC81] (AR v2)
Track 11 accurately ripped (confidence 46) [90AB4012] (AR v2)
Track 12 accurately ripped (confidence 45) [5292836A] (AR v2)
Track 13 accurately ripped (confidence 45) [5FBC3714] (AR v2)
Track 14 accurately ripped (confidence 47) [7B660306] (AR v2)
Track 15 accurately ripped (confidence 46) [2C9DA139] (AR v2)
Track 16 accurately ripped (confidence 46) [908A4ADA] (AR v2)
Track 17 accurately ripped (confidence 46) [AF7C7559] (AR v2)
Track 18 accurately ripped (confidence 46) [607A4A44] (AR v2)
Track 19 accurately ripped (confidence 45) [77817650] (AR v2)

All tracks accurately ripped

End of status report

–– CUETools DB Plugin V2.1.6

[CTDB TOCID: 14c6IqeCMAP.GcHAY_1EejORVAs-] found
Submit result: 14c6IqeCMAP.GcHAY_1EejORVAs- has been confirmed
Track | CTDB Status
1 | (722/729) Accurately ripped
2 | (721/729) Accurately ripped
3 | (721/729) Accurately ripped
4 | (723/729) Accurately ripped
5 | (721/729) Accurately ripped
6 | (723/729) Accurately ripped
7 | (722/729) Accurately ripped
8 | (720/729) Accurately ripped
9 | (720/729) Accurately ripped
10 | (723/729) Accurately ripped
11 | (720/729) Accurately ripped
12 | (716/729) Accurately ripped
13 | (719/729) Accurately ripped
14 | (718/729) Accurately ripped
15 | (719/729) Accurately ripped
16 | (716/729) Accurately ripped, or (2/729) differs in 227 samples @00:59:07-00:59:08,00:59:50,00:59:71-00:59:72
17 | (719/729) Accurately ripped
18 | (718/729) Accurately ripped
19 | (712/729) Accurately ripped


==== Log checksum 6F64911A9BEA028F63C6CCF9E5704A8789DCF402404D0FA635210287C4751FF1 ====


[CUETools log; Date: 11.12.2018 16:51:30; Version: 2.1.5]
Pregap length 00:00:62.
[CTDB TOCID: 14c6IqeCMAP.GcHAY_1EejORVAs-] found.
Track | CTDB Status
1 | (738/745) Accurately ripped
2 | (737/745) Accurately ripped
3 | (736/745) Accurately ripped
4 | (739/745) Accurately ripped
5 | (737/745) Accurately ripped
6 | (739/745) Accurately ripped
7 | (737/745) Accurately ripped
8 | (736/745) Accurately ripped
9 | (736/745) Accurately ripped
10 | (739/745) Accurately ripped
11 | (736/745) Accurately ripped
12 | (731/745) Accurately ripped
13 | (735/745) Accurately ripped
14 | (734/745) Accurately ripped
15 | (735/745) Accurately ripped
16 | (732/745) Accurately ripped, or (2/745) differs in 227 samples @00:59:07-00:59:08,00:59:50,00:59:71-00:59:72
17 | (735/745) Accurately ripped
18 | (734/745) Accurately ripped
19 | (728/745) Accurately ripped
[AccurateRip ID: 00332c90-02deb753-1c117b13] found.
Track [ CRC | V2 ] Status
01 [2dce4331|e242d05f] (026+045/581) Accurately ripped
02 [2225ab8c|bf6ff42d] (026+046/586) Accurately ripped
03 [fc22da79|042d0c39] (026+046/589) Accurately ripped
04 [67f7c8f5|79917b80] (027+046/591) Accurately ripped
05 [6fffd5b5|0faa091f] (027+046/590) Accurately ripped
06 [2521dc05|fca0be48] (027+046/585) Accurately ripped
07 [5b9c5c1e|f208173a] (027+046/590) Accurately ripped
08 [880abc5f|fda600e0] (027+046/590) Accurately ripped
09 [3143a59d|fec81ee2] (027+046/586) Accurately ripped
10 [1a6bae94|017ebc81] (027+046/591) Accurately ripped
11 [5fe7a7a6|90ab4012] (027+046/589) Accurately ripped
12 [20c5e9a9|5292836a] (026+045/586) Accurately ripped
13 [fa74eff4|5fbc3714] (027+045/586) Accurately ripped
14 [3bd529b6|7b660306] (027+047/588) Accurately ripped
15 [19aeb51e|2c9da139] (024+046/588) Accurately ripped
16 [24744cdd|908a4ada] (027+046/590) Accurately ripped
17 [e1c1589d|af7c7559] (025+046/587) Accurately ripped
18 [f4f2aca3|607a4a44] (026+046/582) Accurately ripped
19 [49d36cf9|77817650] (026+045/578) Accurately ripped
Offsetted by -925:
01 [cf153c34] (003/581) Accurately ripped
02 [3875273e] (003/586) Accurately ripped
03 [b1bc49b2] (003/589) Accurately ripped
04 [5d576311] (003/591) Accurately ripped
05 [92fe49d1] (003/590) Accurately ripped
06 [a1a3975f] (003/585) Accurately ripped
07 [be0405bf] (003/590) Accurately ripped
08 [e9348d3b] (003/590) Accurately ripped
09 [ac71d400] (003/586) Accurately ripped
10 [bb87f725] (003/591) Accurately ripped
11 [f30992bd] (003/589) Accurately ripped
12 [ff9256ec] (003/586) Accurately ripped
13 [f7ea2446] (003/586) Accurately ripped
14 [3e4167e1] (003/588) Accurately ripped
15 [6edf2d7d] (003/588) Accurately ripped
16 [d2ce8100] (003/590) Accurately ripped
17 [d700cd35] (003/587) Accurately ripped
18 [62e5c786] (003/582) Accurately ripped
19 [827c0f81] (003/578) Accurately ripped
Offsetted by -419:
01 [10969c48] (011/581) Accurately ripped
02 [bc93ab01] (012/586) Accurately ripped
03 [8178f252] (012/589) Accurately ripped
04 [f57b42c3] (012/591) Accurately ripped
05 [bfad74fe] (012/590) Accurately ripped
06 [9808ef75] (011/585) Accurately ripped
07 [110766cb] (012/590) Accurately ripped
08 [2a82a659] (012/590) Accurately ripped
09 [2c3dfca4] (012/586) Accurately ripped
10 [0bea0364] (012/591) Accurately ripped
11 [68d185fb] (012/589) Accurately ripped
12 [e34219b3] (012/586) Accurately ripped
13 [034a3e79] (012/586) Accurately ripped
14 [c0f21537] (012/588) Accurately ripped
15 [c4d77734] (012/588) Accurately ripped
16 [f1ad3f27] (012/590) Accurately ripped
17 [38efab02] (011/587) Accurately ripped
18 [2ce2f991] (010/582) Accurately ripped
19 [743055ef] (011/578) Accurately ripped
Offsetted by 292:
01 [55e8cf9f] (014/581) Accurately ripped
02 [f45ede40] (014/586) Accurately ripped
03 [9f4a1406] (014/589) Accurately ripped
04 [0f5c66a5] (014/591) Accurately ripped
05 [50d24b1a] (014/590) Accurately ripped
06 [7215391b] (014/585) Accurately ripped
07 [1e37d549] (014/590) Accurately ripped
08 [184af9c1] (014/590) Accurately ripped
09 [bf2c0ca5] (014/586) Accurately ripped
10 [fcee7378] (014/591) Accurately ripped
11 [57b9eb72] (014/589) Accurately ripped
12 [ab8f0ced] (015/586) Accurately ripped
13 [9df759c5] (014/586) Accurately ripped
14 [67c4a207] (014/588) Accurately ripped
15 [e5f8c735] (014/588) Accurately ripped
16 [87b32580] (014/590) Accurately ripped
17 [8c80086a] (014/587) Accurately ripped
18 [5a400656] (014/582) Accurately ripped
19 [ea0ad9a6] (013/578) Accurately ripped
Offsetted by 378:
01 [c04d4e4c] (188/581) Accurately ripped
02 [60e27a30] (190/586) Accurately ripped
03 [d2071c3e] (193/589) Accurately ripped
04 [5f7cb56f] (193/591) Accurately ripped
05 [96372bf5] (193/590) Accurately ripped
06 [fa484db3] (189/585) Accurately ripped
07 [89f54caf] (193/590) Accurately ripped
08 [a1d87b78] (193/590) Accurately ripped
09 [0260cc3f] (190/586) Accurately ripped
10 [70e8cb01] (194/591) Accurately ripped
11 [e79b0173] (192/589) Accurately ripped
12 [a70f7a2b] (191/586) Accurately ripped
13 [eb35439e] (191/586) Accurately ripped
14 [523ec27b] (193/588) Accurately ripped
15 [36284082] (194/588) Accurately ripped
16 [71b677c1] (195/590) Accurately ripped
17 [522818e6] (194/587) Accurately ripped
18 [6fa151e1] (184/582) Accurately ripped
19 [305bd173] (186/578) Accurately ripped
Offsetted by 276:
01 [31391e01] (000/581) No match (V2 was not tested)
02 [5c693e60] (000/586) No match (V2 was not tested)
03 [72855f75] (000/589) No match (V2 was not tested)
04 [b8ad28a4] (000/591) No match (V2 was not tested)
05 [b68c9a2e] (000/590) No match (V2 was not tested)
06 [e0f17e8e] (000/585) No match (V2 was not tested)
07 [ff69617f] (000/590) No match (V2 was not tested)
08 [a6f6bbf1] (000/590) No match (V2 was not tested)
09 [0e4dfb4a] (000/586) No match (V2 was not tested)
10 [85be07b6] (000/591) No match (V2 was not tested)
11 [fbec92b7] (000/589) No match (V2 was not tested)
12 [58b8d63b] (000/586) No match (V2 was not tested)
13 [40ca6083] (000/586) No match (V2 was not tested)
14 [ed727048] (000/588) No match (V2 was not tested)
15 [45f8832a] (000/588) No match (V2 was not tested)
16 [148acf42] (000/590) No match (V2 was not tested)
17 [edf516f1] (000/587) No match (V2 was not tested)
18 [b7d5a7f4] (000/582) No match (V2 was not tested)
19 [a82033cc] (000/578) No match (V2 was not tested)
Offsetted by 286:
01 [156f2aca] (000/581) No match (V2 was not tested)
02 [a9710a6e] (000/586) No match (V2 was not tested)
03 [e29df024] (000/589) No match (V2 was not tested)
04 [45355925] (000/591) No match (V2 was not tested)
05 [cfe6c224] (000/590) No match (V2 was not tested)
06 [9e049588] (000/585) No match (V2 was not tested)
07 [b3647929] (000/590) No match (V2 was not tested)
08 [b4880af1] (000/590) No match (V2 was not tested)
09 [2077e6ad] (000/586) No match (V2 was not tested)
10 [b8ecb72f] (000/591) No match (V2 was not tested)
11 [144e0922] (000/589) No match (V2 was not tested)
12 [6c8f4e10] (000/586) No match (V2 was not tested)
13 [8a58853f] (000/586) No match (V2 was not tested)
14 [113bdfd8] (000/588) No match (V2 was not tested)
15 [b619ff73] (000/588) No match (V2 was not tested)
16 [78103d72] (000/590) No match (V2 was not tested)
17 [176d6249] (000/587) No match (V2 was not tested)
18 [8fd4694e] (000/582) No match (V2 was not tested)
19 [31fefddc] (000/578) No match (V2 was not tested)

Track Peak [ CRC32 ] [W/O NULL] [ LOG ]
– 97,6 [6A61F28F] [CFED769D] CRC32
01 97,6 [DC65C55C] [826EB457]
02 78,1 [088A021E] [BD7F93A1]
03 81,0 [16D8A167] [45B16AFA]
04 56,7 [1B6EADD2] [C3DDBE48]
05 71,2 [B83D7218] [AC7EC4D8]
06 61,7 [66488796] [56EED0FC]
07 67,0 [1B75C0EC] [9C8B2765]
08 85,7 [27CEDFC6] [F1545E97]
09 74,9 [BC02F095] [6E907A76]
10 69,4 [B66637E6] [08AB92A7]
11 76,8 [287A15A0] [C486BB0D]
12 90,1 [1214E12B] [D0C733E8]
13 78,6 [3639F6FE] [53598E8E]
14 93,4 [33E71306] [DEA467B1]
15 71,5 [07A74660] [08E9DB09]
16 61,3 [82865ED9] [45F9C2FC]
17 70,9 [DB0C532A] [12F0D32C]
18 60,0 [8E15FCEA] [D4A803EE]
19 31,8 [0B6DE8F7] [81000EDC]


Jethro Tull - Living in the Past (1972)

All thanks go to Olaf der Weisse

Jethro Tull in my Blog

Download Jethro Tull - Living in the Past (1972):