Subcategories

Jing Chi - Supremo (2017)

Posted By: SERTiL
Jing Chi - Supremo (2017)

Jing Chi - Supremo (2017)
EAC Rip | FLAC (tracks)+cue, log, m3u, covers | 317 MB
Label: Tone Center – TC 4101-2 | Tracks: 10 | Time: 53:22 min
Jazz, Fusion

After a thirteen year break, Jing Chi, the groovin' blues fusion powerhouse featuring guitarist Robben Ford, bassist Jimmy Haslip and drummer Vinnie Colaiuta deliver their incredible 4th record for Tone Center, Supremo, produced by Jimmy Haslip and co-produced by Robben Ford. Ford's solo career and other collaborations, together with Colaiuta and Haslip's demand as top LA session players, have more than kept the guys busyin the interim. However, when the opportunity arose to get together once again and make some great music, each player brought his A-Game to the table and the result is nothing short of a collaborative masterpiece that breaks new musical ground for this stunning trio. The Tone Center label's mission has been to place highly talented, yet diverse players in the studio, and let the tapes roll. Tone Center's fourth Jing Chi release continues to follow that tradition of the Super Session, but with more emphasis on their compositions. This is a collaboration between renowned guitarist Robben Ford who has been recording under his own name and as a session player since the 1970's, drummer Vinnie Colaiuta (Sting, Frank Zappa, Steely Dan) and bassist Jimmy Haslip (Yellowjackets, Tommy Bolin, Steely Dan) with special guest appearances by saxophonist Jeff Coffin and trumpet session veteran Mike Haynes. The collective sessions and the names of the A-list artists with whom the members of Jing Chi and their guests have played would literally fill a book as each performer has amassed a staggering discography. Supremo is more than a vehicle for fantastic soloing as the compositions are important, well arranged pieces of music that exhibit a synergy rarely heardin today's music. The horns are used primarily as an underlying texture with clever lines that weave in and out bringing to mind vintage jazz and soul music with a modern edge. Producer Jimmy Haslip says this about Supremo and Jing Chi: These recordings are always compelling, tightly fused and joyfully challenging musically and creatively. We are like family, yet we are chemically charged at this point and that makes these projects easy to comfortably find clear focus and a unified direction. We have been working with chief engineer Rich Breen on all of the Jing Chi records. He is a gift and is the band's sonic architect. I'm proud to say that Supremo is a high energy Modern R&B Fusion explosion of sound!

Jing Chi - Supremo (2017)


Tracklist:
1. The Majestic (04:10)
2. Better Times (03:51)
3. Showtime (05:24)
4. Secrets (04:10)
5. On Green Pepper Street (05:32)
6. Casablanca (06:11)
7. Vegas (05:21)
8. SPM (04:41)
9. At the Apollo (06:27)
10. Jing Xi (07:35)

Exact Audio Copy V1.1 from 23. June 2015

EAC extraction logfile from 6. December 2017, 22:07

Jing Chi / Supremo

Used drive : TSSTcorpCDDVDW SH-224DB Adapter: 1 ID: 0

Read mode : Secure
Utilize accurate stream : Yes
Defeat audio cache : Yes
Make use of C2 pointers : No

Read offset correction : 6
Overread into Lead-In and Lead-Out : No
Fill up missing offset samples with silence : Yes
Delete leading and trailing silent blocks : No
Null samples used in CRC calculations : Yes
Used interface : Native Win32 interface for Win NT & 2000
Gap handling : Appended to previous track

Used output format : User Defined Encoder
Selected bitrate : 1024 kBit/s
Quality : High
Add ID3 tag : No
Command line compressor : C:\Program Files (x86)\Exact Audio Copy\win64\flac.exe
Additional command line options : -8 -V -T "ARTIST=%artist%" -T "TITLE=%title%" -T "ALBUM=%albumtitle%" -T "DATE=%year%" -T "TRACKNUMBER=%tracknr%" -T "GENRE=%genre%" -T "COMMENT=%comment%" %source% -o %dest%


TOC of the extracted CD

Track | Start | Length | Start sector | End sector
––––––––––––––––––––––––––––-
1 | 0:00.00 | 4:10.48 | 0 | 18797
2 | 4:10.48 | 3:51.46 | 18798 | 36168
3 | 8:02.19 | 5:24.22 | 36169 | 60490
4 | 13:26.41 | 4:10.59 | 60491 | 79299
5 | 17:37.25 | 5:32.07 | 79300 | 104206
6 | 23:09.32 | 6:11.41 | 104207 | 132072
7 | 29:20.73 | 5:21.69 | 132073 | 156216
8 | 34:42.67 | 4:41.68 | 156217 | 177359
9 | 39:24.60 | 6:27.55 | 177360 | 206439
10 | 45:52.40 | 7:35.71 | 206440 | 240635


Track 1

Filename F:\Sket4er\Jing Chi – Supremo 2017\01 The Majestic.wav

Pre-gap length 0:00:02.00

Peak level 89.1 %
Extraction speed 1.7 X
Track quality 99.9 %
Test CRC 98827BF1
Copy CRC 98827BF1
Track not present in AccurateRip database
Copy OK

Track 2

Filename F:\Sket4er\Jing Chi – Supremo 2017\02 Better Times.wav

Peak level 89.1 %
Extraction speed 2.1 X
Track quality 100.0 %
Test CRC A20ECBBD
Copy CRC A20ECBBD
Track not present in AccurateRip database
Copy OK

Track 3

Filename F:\Sket4er\Jing Chi – Supremo 2017\03 Showtime.wav

Peak level 89.1 %
Extraction speed 2.4 X
Track quality 100.0 %
Test CRC F07433DE
Copy CRC F07433DE
Track not present in AccurateRip database
Copy OK

Track 4

Filename F:\Sket4er\Jing Chi – Supremo 2017\04 Secrets.wav

Peak level 89.1 %
Extraction speed 2.5 X
Track quality 100.0 %
Test CRC 1E7DD28E
Copy CRC 1E7DD28E
Track not present in AccurateRip database
Copy OK

Track 5

Filename F:\Sket4er\Jing Chi – Supremo 2017\05 On Green Pepper Street.wav

Peak level 89.1 %
Extraction speed 2.8 X
Track quality 100.0 %
Test CRC 4E2ECF2D
Copy CRC 4E2ECF2D
Track not present in AccurateRip database
Copy OK

Track 6

Filename F:\Sket4er\Jing Chi – Supremo 2017\06 Casablanca.wav

Peak level 89.1 %
Extraction speed 3.0 X
Track quality 100.0 %
Test CRC B9652D26
Copy CRC B9652D26
Track not present in AccurateRip database
Copy OK

Track 7

Filename F:\Sket4er\Jing Chi – Supremo 2017\07 Vegas.wav

Peak level 89.1 %
Extraction speed 3.1 X
Track quality 100.0 %
Test CRC F51BE113
Copy CRC F51BE113
Track not present in AccurateRip database
Copy OK

Track 8

Filename F:\Sket4er\Jing Chi – Supremo 2017\08 SPM.wav

Peak level 89.1 %
Extraction speed 3.2 X
Track quality 100.0 %
Test CRC C8833207
Copy CRC C8833207
Track not present in AccurateRip database
Copy OK

Track 9

Filename F:\Sket4er\Jing Chi – Supremo 2017\09 At The Apollo.wav

Peak level 89.1 %
Extraction speed 3.0 X
Track quality 99.9 %
Test CRC 78437AC6
Copy CRC 78437AC6
Track not present in AccurateRip database
Copy OK

Track 10

Filename F:\Sket4er\Jing Chi – Supremo 2017\10 Jing Xi.wav

Peak level 89.1 %
Extraction speed 3.7 X
Track quality 100.0 %
Test CRC A05B3117
Copy CRC A05B3117
Track not present in AccurateRip database
Copy OK


None of the tracks are present in the AccurateRip database

No errors occurred

End of status report

–– CUETools DB Plugin V2.1.6

[CTDB TOCID: FJcTaMblTSM42BPqE0U2jclVuvw-] found
Submit result: FJcTaMblTSM42BPqE0U2jclVuvw- has been confirmed
Track | CTDB Status
1 | (3/3) Accurately ripped
2 | (3/3) Accurately ripped
3 | (3/3) Accurately ripped
4 | (3/3) Accurately ripped
5 | (3/3) Accurately ripped
6 | (3/3) Accurately ripped
7 | (3/3) Accurately ripped
8 | (3/3) Accurately ripped
9 | (3/3) Accurately ripped
10 | (3/3) Accurately ripped


==== Log checksum 95036EA004B0DBD8737C751655C4CFEC971F78E256D97EE80D3F62096002A744 ====


Jing Chi - Supremo (2017)


Thanks to the Original customer.