Subcategories

Jill Scott - Who Is Jill Scott: Words And Sounds Vol. 1 (2000) {Hidden Beach/Epic Japan} **[RE-UP]**

Posted By: TestTickles
Jill Scott - Who Is Jill Scott: Words And Sounds Vol. 1 (2000) {Hidden Beach/Epic Japan} **[RE-UP]**

Jill Scott - Who Is Jill Scott: Words And Sounds Vol. 1 (2000) {Hidden Beach/Epic Japan}
EAC Rip | FLAC with CUE and log | scans | 473 mb
MP3 CBR 320kbps | RAR | 180 mb
Genre: R&B, soul

Who Is Jill Scott: Words And Sounds Vol. 1 is the 2000 debut album from Philadelphia vocalist Jill Scott. There is a hidden track after the end of "Try", a remix of "Love Rain" featuring Mos Def. This is the Japanese pressing with a bonus track not found on other world pressings. Since the CD also has tracks of "silence", it shows the disc having 46 tracks. The MP3 version isolates the hidden/bonus track as its own file so for those who want MP3's, you will get 20 tracks total. This was released by Hidden Beach via Epic in Japan.

Jill Scott - Who Is Jill Scott: Words And Sounds Vol. 1 (2000) {Hidden Beach/Epic Japan} **[RE-UP]**

1. Jilltro (1:03)
2. Do You Remember? (4:43)
3. Exclusively (2:05)
4. Gettin' In The Way (3:56)
5. A Long Walk (4:41)
6. I Think It's Better (1:42)
7. He Loves Me (Lyzel In E Flat) (4:45)
8. It's Love (5:54)
9. The Way (4:16)
10. Honey Molasses (2:41)
11. Love Rain (4:12)
12. The Roots (Interlude) (0:57)
13. Slowly Surely (4:35)
14. One Is The Magic # (3:48)
15. Watching Me (3:45)
16. Brotha (3:25)
17. Show Me (4:06)
18. (silence)
19. (silence)
20. (silence)
21. (silence)
22. (silence)
23. (silence)
24. (silence)
25. (silence)
26. (silence)
27. (silence)
28. (silence)
29. (silence)
30. (silence)
31. (silence)
32. (silence)
33. (silence)
34. (silence)
35. (silence)
36. (silence)
37. (silence)
38. (silence)
39. (silence)
40. (silence)
41. (silence)
42. (silence)
43. (silence)
44. Try (10:07)
45. (silence)
46. One Time (Japan-only bonus track) (4:00)



MP3 VERSION
1. Jilltro (1:03)
2. Do You Remember? (4:43)
3. Exclusively (2:05)
4. Gettin' In The Way (3:56)
5. A Long Walk (4:41)
6. I Think It's Better (1:42)
7. He Loves Me (Lyzel In E Flat) (4:45)
8. It's Love (5:54)
9. The Way (4:16)
10. Honey Molasses (2:41)
11. Love Rain (4:12)
12. The Roots (Interlude) (0:57)
13. Slowly Surely (4:35)
14. One Is The Magic # (3:48)
15. Watching Me (3:45)
16. Brotha (3:25)
17. Show Me (4:06)
18. Try (4:02)
19. Love Rain (Remix) (5:05)
20. One Time (Japan-only bonus track) (4:00)

Jill Scott - Who Is Jill Scott: Words And Sounds Vol. 1 (2000) {Hidden Beach/Epic Japan} **[RE-UP]**


Exact Audio Copy V1.1 from 23. June 2015

EAC extraction logfile from 2. May 2016, 22:57

Jill Scott / Who Is Jill Scott? Words And Sound Vol. 1

Used drive : TEAC DVD-ROM DV-28SW Adapter: 1 ID: 0

Read mode : Secure
Utilize accurate stream : Yes
Defeat audio cache : Yes
Make use of C2 pointers : No

Read offset correction : 6
Overread into Lead-In and Lead-Out : No
Fill up missing offset samples with silence : Yes
Delete leading and trailing silent blocks : No
Null samples used in CRC calculations : Yes
Used interface : Native Win32 interface for Win NT & 2000
Gap handling : Left out

Used output format : Internal WAV Routines
Sample format : 44.100 Hz; 16 Bit; Stereo


TOC of the extracted CD

Track | Start | Length | Start sector | End sector
––––––––––––––––––––––––––––-
1 | 0:00.00 | 1:03.12 | 0 | 4736
2 | 1:03.12 | 4:43.15 | 4737 | 25976
3 | 5:46.27 | 2:05.18 | 25977 | 35369
4 | 7:51.45 | 3:56.37 | 35370 | 53106
5 | 11:48.07 | 4:40.73 | 53107 | 74179
6 | 16:29.05 | 1:42.22 | 74180 | 81851
7 | 18:11.27 | 4:45.55 | 81852 | 103281
8 | 22:57.07 | 5:54.30 | 103282 | 129861
9 | 28:51.37 | 4:15.55 | 129862 | 149041
10 | 33:07.17 | 2:41.40 | 149042 | 161156
11 | 35:48.57 | 4:12.00 | 161157 | 180056
12 | 40:00.57 | 0:57.10 | 180057 | 184341
13 | 40:57.67 | 4:35.50 | 184342 | 205016
14 | 45:33.42 | 3:49.45 | 205017 | 222236
15 | 49:23.12 | 3:48.25 | 222237 | 239361
16 | 53:11.37 | 3:27.63 | 239362 | 254949
17 | 56:39.25 | 4:11.45 | 254950 | 273819
18 | 60:50.70 | 0:05.02 | 273820 | 274196
19 | 60:55.72 | 0:04.48 | 274197 | 274544
20 | 61:00.45 | 0:05.40 | 274545 | 274959
21 | 61:06.10 | 0:05.00 | 274960 | 275334
22 | 61:11.10 | 0:05.00 | 275335 | 275709
23 | 61:16.10 | 0:05.00 | 275710 | 276084
24 | 61:21.10 | 0:05.00 | 276085 | 276459
25 | 61:26.10 | 0:05.00 | 276460 | 276834
26 | 61:31.10 | 0:05.00 | 276835 | 277209
27 | 61:36.10 | 0:05.00 | 277210 | 277584
28 | 61:41.10 | 0:05.00 | 277585 | 277959
29 | 61:46.10 | 0:05.00 | 277960 | 278334
30 | 61:51.10 | 0:05.00 | 278335 | 278709
31 | 61:56.10 | 0:05.00 | 278710 | 279084
32 | 62:01.10 | 0:05.00 | 279085 | 279459
33 | 62:06.10 | 0:05.00 | 279460 | 279834
34 | 62:11.10 | 0:05.00 | 279835 | 280209
35 | 62:16.10 | 0:05.00 | 280210 | 280584
36 | 62:21.10 | 0:05.00 | 280585 | 280959
37 | 62:26.10 | 0:05.00 | 280960 | 281334
38 | 62:31.10 | 0:05.00 | 281335 | 281709
39 | 62:36.10 | 0:05.00 | 281710 | 282084
40 | 62:41.10 | 0:05.00 | 282085 | 282459
41 | 62:46.10 | 0:05.00 | 282460 | 282834
42 | 62:51.10 | 0:05.00 | 282835 | 283209
43 | 62:56.10 | 0:05.00 | 283210 | 283584
44 | 63:01.10 | 10:09.40 | 283585 | 329299
45 | 73:10.50 | 0:30.00 | 329300 | 331549
46 | 73:40.50 | 4:00.00 | 331550 | 349549


Track 1

Filename C:\My Documents\My FLAC\Jill Scott - Who Is Jill Scott, Words And Sounds Vol. 1 (2000) [FLAC] {Hidden Beach, Epic Japan}\01 - Jilltro.wav

Pre-gap length 0:00:02.00

Peak level 99.9 %
Extraction speed 1.3 X
Track quality 100.0 %
Test CRC 3160ADF0
Copy CRC 3160ADF0
Accurately ripped (confidence 1) [D67F2D90] (AR v2)
Copy OK

Track 2

Filename C:\My Documents\My FLAC\Jill Scott - Who Is Jill Scott, Words And Sounds Vol. 1 (2000) [FLAC] {Hidden Beach, Epic Japan}\02 - Do You Remember.wav

Peak level 100.0 %
Extraction speed 1.8 X
Track quality 99.9 %
Test CRC 350CE129
Copy CRC 350CE129
Accurately ripped (confidence 1) [3A4E0CF8] (AR v2)
Copy OK

Track 3

Filename C:\My Documents\My FLAC\Jill Scott - Who Is Jill Scott, Words And Sounds Vol. 1 (2000) [FLAC] {Hidden Beach, Epic Japan}\03 - Exclusively.wav

Peak level 100.0 %
Extraction speed 1.9 X
Track quality 100.0 %
Test CRC 324F41D0
Copy CRC 324F41D0
Accurately ripped (confidence 1) [8A6D8DDB] (AR v2)
Copy OK

Track 4

Filename C:\My Documents\My FLAC\Jill Scott - Who Is Jill Scott, Words And Sounds Vol. 1 (2000) [FLAC] {Hidden Beach, Epic Japan}\04 - Gettin' In The Way.wav

Peak level 100.0 %
Extraction speed 2.2 X
Track quality 100.0 %
Test CRC 7E9C48C7
Copy CRC 7E9C48C7
Accurately ripped (confidence 1) [2E5A786F] (AR v2)
Copy OK

Track 5

Filename C:\My Documents\My FLAC\Jill Scott - Who Is Jill Scott, Words And Sounds Vol. 1 (2000) [FLAC] {Hidden Beach, Epic Japan}\05 - A Long Walk.wav

Peak level 100.0 %
Extraction speed 2.4 X
Track quality 100.0 %
Test CRC 82711BFD
Copy CRC 82711BFD
Accurately ripped (confidence 1) [D16C1B9F] (AR v2)
Copy OK

Track 6

Filename C:\My Documents\My FLAC\Jill Scott - Who Is Jill Scott, Words And Sounds Vol. 1 (2000) [FLAC] {Hidden Beach, Epic Japan}\06 - I Think It's Better.wav

Peak level 89.1 %
Extraction speed 2.1 X
Track quality 100.0 %
Test CRC E5A97755
Copy CRC E5A97755
Accurately ripped (confidence 1) [3668A30F] (AR v2)
Copy OK

Track 7

Filename C:\My Documents\My FLAC\Jill Scott - Who Is Jill Scott, Words And Sounds Vol. 1 (2000) [FLAC] {Hidden Beach, Epic Japan}\07 - He Loves Me (Lyzel In E Flat).wav

Peak level 100.0 %
Extraction speed 2.6 X
Track quality 100.0 %
Test CRC 4971EEB7
Copy CRC 4971EEB7
Accurately ripped (confidence 1) [93C2DC45] (AR v2)
Copy OK

Track 8

Filename C:\My Documents\My FLAC\Jill Scott - Who Is Jill Scott, Words And Sounds Vol. 1 (2000) [FLAC] {Hidden Beach, Epic Japan}\08 - It's Love.wav

Peak level 100.0 %
Extraction speed 2.9 X
Track quality 100.0 %
Test CRC B4FD2809
Copy CRC B4FD2809
Accurately ripped (confidence 1) [CA906240] (AR v2)
Copy OK

Track 9

Filename C:\My Documents\My FLAC\Jill Scott - Who Is Jill Scott, Words And Sounds Vol. 1 (2000) [FLAC] {Hidden Beach, Epic Japan}\09 - The Way.wav

Peak level 100.0 %
Extraction speed 2.9 X
Track quality 100.0 %
Test CRC 71D2DFBA
Copy CRC 71D2DFBA
Accurately ripped (confidence 1) [7786780E] (AR v2)
Copy OK

Track 10

Filename C:\My Documents\My FLAC\Jill Scott - Who Is Jill Scott, Words And Sounds Vol. 1 (2000) [FLAC] {Hidden Beach, Epic Japan}\10 - Honey Molasses.wav

Peak level 100.0 %
Extraction speed 2.8 X
Track quality 100.0 %
Test CRC E5D20F17
Copy CRC E5D20F17
Accurately ripped (confidence 1) [B8E0A7E2] (AR v2)
Copy OK

Track 11

Filename C:\My Documents\My FLAC\Jill Scott - Who Is Jill Scott, Words And Sounds Vol. 1 (2000) [FLAC] {Hidden Beach, Epic Japan}\11 - Love Rain.wav

Peak level 100.0 %
Extraction speed 2.8 X
Track quality 99.9 %
Test CRC 13E5248C
Copy CRC 13E5248C
Accurately ripped (confidence 1) [19E5AF20] (AR v2)
Copy OK

Track 12

Filename C:\My Documents\My FLAC\Jill Scott - Who Is Jill Scott, Words And Sounds Vol. 1 (2000) [FLAC] {Hidden Beach, Epic Japan}\12 - The Roots (Interlude).wav

Peak level 79.4 %
Extraction speed 2.1 X
Track quality 100.0 %
Test CRC 5BC75D68
Copy CRC 5BC75D68
Accurately ripped (confidence 1) [DC693003] (AR v2)
Copy OK

Track 13

Filename C:\My Documents\My FLAC\Jill Scott - Who Is Jill Scott, Words And Sounds Vol. 1 (2000) [FLAC] {Hidden Beach, Epic Japan}\13 - Slowly Surely.wav

Peak level 100.0 %
Extraction speed 3.3 X
Track quality 100.0 %
Test CRC 5E7A75CE
Copy CRC 5E7A75CE
Accurately ripped (confidence 1) [6A1ED60E] (AR v2)
Copy OK

Track 14

Filename C:\My Documents\My FLAC\Jill Scott - Who Is Jill Scott, Words And Sounds Vol. 1 (2000) [FLAC] {Hidden Beach, Epic Japan}\14 - One Is The Magic #.wav

Peak level 100.0 %
Extraction speed 3.3 X
Track quality 100.0 %
Test CRC 7AA0EC5A
Copy CRC 7AA0EC5A
Accurately ripped (confidence 1) [11E71E3C] (AR v2)
Copy OK

Track 15

Filename C:\My Documents\My FLAC\Jill Scott - Who Is Jill Scott, Words And Sounds Vol. 1 (2000) [FLAC] {Hidden Beach, Epic Japan}\15 - Watching Me.wav

Peak level 100.0 %
Extraction speed 3.4 X
Track quality 100.0 %
Test CRC CD3278C2
Copy CRC CD3278C2
Accurately ripped (confidence 1) [D76AB56F] (AR v2)
Copy OK

Track 16

Filename C:\My Documents\My FLAC\Jill Scott - Who Is Jill Scott, Words And Sounds Vol. 1 (2000) [FLAC] {Hidden Beach, Epic Japan}\16 - Brotha.wav

Peak level 99.9 %
Extraction speed 3.0 X
Track quality 99.9 %
Test CRC 92CD9CE2
Copy CRC 92CD9CE2
Accurately ripped (confidence 1) [FD4A1780] (AR v2)
Copy OK

Track 17

Filename C:\My Documents\My FLAC\Jill Scott - Who Is Jill Scott, Words And Sounds Vol. 1 (2000) [FLAC] {Hidden Beach, Epic Japan}\17 - Show Me.wav

Peak level 100.0 %
Extraction speed 3.6 X
Track quality 100.0 %
Test CRC FE778107
Copy CRC FE778107
Track not fully ripped for AccurateRip lookup
Copy OK

Track 18

Filename C:\My Documents\My FLAC\Jill Scott - Who Is Jill Scott, Words And Sounds Vol. 1 (2000) [FLAC] {Hidden Beach, Epic Japan}\18 - (silence).wav

Pre-gap length 0:00:03.58

Peak level 0.0 %
Extraction speed 0.5 X
Track quality 100.0 %
Test CRC 61E6010A
Copy CRC 61E6010A
Track not present in AccurateRip database
Copy OK

Track 19

Filename C:\My Documents\My FLAC\Jill Scott - Who Is Jill Scott, Words And Sounds Vol. 1 (2000) [FLAC] {Hidden Beach, Epic Japan}\19 - (silence).wav

Peak level 0.0 %
Extraction speed 0.2 X
Track quality 97.6 %
Test CRC C9C3A35E
Copy CRC C9C3A35E
Track not present in AccurateRip database
Copy OK

Track 20

Filename C:\My Documents\My FLAC\Jill Scott - Who Is Jill Scott, Words And Sounds Vol. 1 (2000) [FLAC] {Hidden Beach, Epic Japan}\20 - (silence).wav

Peak level 0.0 %
Extraction speed 0.5 X
Track quality 100.0 %
Test CRC 67239401
Copy CRC 67239401
Track not present in AccurateRip database
Copy OK

Track 21

Filename C:\My Documents\My FLAC\Jill Scott - Who Is Jill Scott, Words And Sounds Vol. 1 (2000) [FLAC] {Hidden Beach, Epic Japan}\21 - (silence).wav

Peak level 0.0 %
Extraction speed 0.2 X
Track quality 97.8 %
Test CRC 0AB5D1E5
Copy CRC 0AB5D1E5
Track not present in AccurateRip database
Copy OK

Track 22

Filename C:\My Documents\My FLAC\Jill Scott - Who Is Jill Scott, Words And Sounds Vol. 1 (2000) [FLAC] {Hidden Beach, Epic Japan}\22 - (silence).wav

Peak level 0.0 %
Extraction speed 0.2 X
Track quality 97.8 %
Test CRC 0AB5D1E5
Copy CRC 0AB5D1E5
Track not present in AccurateRip database
Copy OK

Track 23

Filename C:\My Documents\My FLAC\Jill Scott - Who Is Jill Scott, Words And Sounds Vol. 1 (2000) [FLAC] {Hidden Beach, Epic Japan}\23 - (silence).wav

Peak level 0.0 %
Extraction speed 0.2 X
Track quality 97.8 %
Test CRC 0AB5D1E5
Copy CRC 0AB5D1E5
Track not present in AccurateRip database
Copy OK

Track 24

Filename C:\My Documents\My FLAC\Jill Scott - Who Is Jill Scott, Words And Sounds Vol. 1 (2000) [FLAC] {Hidden Beach, Epic Japan}\24 - (silence).wav

Peak level 0.0 %
Extraction speed 0.2 X
Track quality 97.8 %
Test CRC 0AB5D1E5
Copy CRC 0AB5D1E5
Track not present in AccurateRip database
Copy OK

Track 25

Filename C:\My Documents\My FLAC\Jill Scott - Who Is Jill Scott, Words And Sounds Vol. 1 (2000) [FLAC] {Hidden Beach, Epic Japan}\25 - (silence).wav

Peak level 0.0 %
Extraction speed 0.2 X
Track quality 97.8 %
Test CRC 0AB5D1E5
Copy CRC 0AB5D1E5
Track not present in AccurateRip database
Copy OK

Track 26

Filename C:\My Documents\My FLAC\Jill Scott - Who Is Jill Scott, Words And Sounds Vol. 1 (2000) [FLAC] {Hidden Beach, Epic Japan}\26 - (silence).wav

Peak level 0.0 %
Extraction speed 0.2 X
Track quality 97.8 %
Test CRC 0AB5D1E5
Copy CRC 0AB5D1E5
Track not present in AccurateRip database
Copy OK

Track 27

Filename C:\My Documents\My FLAC\Jill Scott - Who Is Jill Scott, Words And Sounds Vol. 1 (2000) [FLAC] {Hidden Beach, Epic Japan}\27 - (silence).wav

Peak level 0.0 %
Extraction speed 0.2 X
Track quality 97.8 %
Test CRC 0AB5D1E5
Copy CRC 0AB5D1E5
Track not present in AccurateRip database
Copy OK

Track 28

Filename C:\My Documents\My FLAC\Jill Scott - Who Is Jill Scott, Words And Sounds Vol. 1 (2000) [FLAC] {Hidden Beach, Epic Japan}\28 - (silence).wav

Peak level 0.0 %
Extraction speed 0.2 X
Track quality 97.8 %
Test CRC 0AB5D1E5
Copy CRC 0AB5D1E5
Track not present in AccurateRip database
Copy OK

Track 29

Filename C:\My Documents\My FLAC\Jill Scott - Who Is Jill Scott, Words And Sounds Vol. 1 (2000) [FLAC] {Hidden Beach, Epic Japan}\29 - (silence).wav

Peak level 0.0 %
Extraction speed 0.2 X
Track quality 97.8 %
Test CRC 0AB5D1E5
Copy CRC 0AB5D1E5
Track not present in AccurateRip database
Copy OK

Track 30

Filename C:\My Documents\My FLAC\Jill Scott - Who Is Jill Scott, Words And Sounds Vol. 1 (2000) [FLAC] {Hidden Beach, Epic Japan}\30 - (silence).wav

Peak level 0.0 %
Extraction speed 0.2 X
Track quality 97.8 %
Test CRC 0AB5D1E5
Copy CRC 0AB5D1E5
Track not present in AccurateRip database
Copy OK

Track 31

Filename C:\My Documents\My FLAC\Jill Scott - Who Is Jill Scott, Words And Sounds Vol. 1 (2000) [FLAC] {Hidden Beach, Epic Japan}\31 - (silence).wav

Peak level 0.0 %
Extraction speed 0.2 X
Track quality 97.8 %
Test CRC 0AB5D1E5
Copy CRC 0AB5D1E5
Track not present in AccurateRip database
Copy OK

Track 32

Filename C:\My Documents\My FLAC\Jill Scott - Who Is Jill Scott, Words And Sounds Vol. 1 (2000) [FLAC] {Hidden Beach, Epic Japan}\32 - (silence).wav

Peak level 0.0 %
Extraction speed 0.2 X
Track quality 97.8 %
Test CRC 0AB5D1E5
Copy CRC 0AB5D1E5
Track not present in AccurateRip database
Copy OK

Track 33

Filename C:\My Documents\My FLAC\Jill Scott - Who Is Jill Scott, Words And Sounds Vol. 1 (2000) [FLAC] {Hidden Beach, Epic Japan}\33 - (silence).wav

Peak level 0.0 %
Extraction speed 0.2 X
Track quality 97.8 %
Test CRC 0AB5D1E5
Copy CRC 0AB5D1E5
Track not present in AccurateRip database
Copy OK

Track 34

Filename C:\My Documents\My FLAC\Jill Scott - Who Is Jill Scott, Words And Sounds Vol. 1 (2000) [FLAC] {Hidden Beach, Epic Japan}\34 - (silence).wav

Peak level 0.0 %
Extraction speed 0.2 X
Track quality 97.8 %
Test CRC 0AB5D1E5
Copy CRC 0AB5D1E5
Track not present in AccurateRip database
Copy OK

Track 35

Filename C:\My Documents\My FLAC\Jill Scott - Who Is Jill Scott, Words And Sounds Vol. 1 (2000) [FLAC] {Hidden Beach, Epic Japan}\35 - (silence).wav

Peak level 0.0 %
Extraction speed 0.2 X
Track quality 97.8 %
Test CRC 0AB5D1E5
Copy CRC 0AB5D1E5
Track not present in AccurateRip database
Copy OK

Track 36

Filename C:\My Documents\My FLAC\Jill Scott - Who Is Jill Scott, Words And Sounds Vol. 1 (2000) [FLAC] {Hidden Beach, Epic Japan}\36 - (silence).wav

Peak level 0.0 %
Extraction speed 0.2 X
Track quality 97.8 %
Test CRC 0AB5D1E5
Copy CRC 0AB5D1E5
Track not present in AccurateRip database
Copy OK

Track 37

Filename C:\My Documents\My FLAC\Jill Scott - Who Is Jill Scott, Words And Sounds Vol. 1 (2000) [FLAC] {Hidden Beach, Epic Japan}\37 - (silence).wav

Peak level 0.0 %
Extraction speed 0.2 X
Track quality 97.8 %
Test CRC 0AB5D1E5
Copy CRC 0AB5D1E5
Track not present in AccurateRip database
Copy OK

Track 38

Filename C:\My Documents\My FLAC\Jill Scott - Who Is Jill Scott, Words And Sounds Vol. 1 (2000) [FLAC] {Hidden Beach, Epic Japan}\38 - (silence).wav

Peak level 0.0 %
Extraction speed 0.2 X
Track quality 97.8 %
Test CRC 0AB5D1E5
Copy CRC 0AB5D1E5
Track not present in AccurateRip database
Copy OK

Track 39

Filename C:\My Documents\My FLAC\Jill Scott - Who Is Jill Scott, Words And Sounds Vol. 1 (2000) [FLAC] {Hidden Beach, Epic Japan}\39 - (silence).wav

Peak level 0.0 %
Extraction speed 0.2 X
Track quality 97.8 %
Test CRC 0AB5D1E5
Copy CRC 0AB5D1E5
Track not present in AccurateRip database
Copy OK

Track 40

Filename C:\My Documents\My FLAC\Jill Scott - Who Is Jill Scott, Words And Sounds Vol. 1 (2000) [FLAC] {Hidden Beach, Epic Japan}\40 - (silence).wav

Peak level 0.0 %
Extraction speed 0.2 X
Track quality 97.8 %
Test CRC 0AB5D1E5
Copy CRC 0AB5D1E5
Track not present in AccurateRip database
Copy OK

Track 41

Filename C:\My Documents\My FLAC\Jill Scott - Who Is Jill Scott, Words And Sounds Vol. 1 (2000) [FLAC] {Hidden Beach, Epic Japan}\41 - (silence).wav

Peak level 0.0 %
Extraction speed 0.2 X
Track quality 97.8 %
Test CRC 0AB5D1E5
Copy CRC 0AB5D1E5
Track not present in AccurateRip database
Copy OK

Track 42

Filename C:\My Documents\My FLAC\Jill Scott - Who Is Jill Scott, Words And Sounds Vol. 1 (2000) [FLAC] {Hidden Beach, Epic Japan}\42 - (silence).wav

Peak level 0.0 %
Extraction speed 0.0 X
Track quality 97.8 %
Test CRC 0AB5D1E5
Copy CRC 0AB5D1E5
Track not present in AccurateRip database
Copy OK

Track 43

Filename C:\My Documents\My FLAC\Jill Scott - Who Is Jill Scott, Words And Sounds Vol. 1 (2000) [FLAC] {Hidden Beach, Epic Japan}\43 - (silence).wav

Peak level 0.0 %
Extraction speed 0.2 X
Track quality 97.8 %
Test CRC 0AB5D1E5
Copy CRC 0AB5D1E5
Track not present in AccurateRip database
Copy OK

Track 44

Filename C:\My Documents\My FLAC\Jill Scott - Who Is Jill Scott, Words And Sounds Vol. 1 (2000) [FLAC] {Hidden Beach, Epic Japan}\44 - Try.wav

Peak level 100.0 %
Extraction speed 4.2 X
Track quality 100.0 %
Test CRC C3035E02
Copy CRC C3035E02
Track not fully ripped for AccurateRip lookup
Copy OK

Track 45

Filename C:\My Documents\My FLAC\Jill Scott - Who Is Jill Scott, Words And Sounds Vol. 1 (2000) [FLAC] {Hidden Beach, Epic Japan}\45 - (silence).wav

Pre-gap length 0:00:01.60

Peak level 0.0 %
Extraction speed 2.0 X
Track quality 100.0 %
Test CRC 6AB5B3AF
Copy CRC 6AB5B3AF
Track not present in AccurateRip database
Copy OK

Track 46

Filename C:\My Documents\My FLAC\Jill Scott - Who Is Jill Scott, Words And Sounds Vol. 1 (2000) [FLAC] {Hidden Beach, Epic Japan}\46 - One Time.wav

Peak level 100.0 %
Extraction speed 3.5 X
Track quality 99.9 %
Test CRC 01C39020
Copy CRC 01C39020
Accurately ripped (confidence 1) [0701B136] (AR v2)
Copy OK


17 track(s) accurately ripped
27 track(s) not present in the AccurateRip database
2 track(s) not fully ripped for AccurateRip lookup

Some tracks could not be verified as accurate

No errors occurred

End of status report

==== Log checksum 833DD4ADC9BD77ED12CDEB9BB8B1A918384514AE9488A7AB4E86A5F00FB8DD82 ====