Tags
Language
Tags

Joe Dassin - Les Femmes De Ma Vie `78 & 15 Ans Deja... `78 (2001)

Posted By: v3122
Joe Dassin - Les Femmes De Ma Vie `78 & 15 Ans Deja... `78 (2001)

Joe Dassin - Les Femmes De Ma Vie `78 & 15 Ans Deja… `78 (2001)
EAC | Flac(Image) + Cue + Log & MP3 CBR 320Kbps
CD-Maximum, CDM 1200-562 | ~ 516 or 187 Mb | Scans(jpg) -> 50 Mb
Pop / Chanson / Country

American expatriate Joe Dassin was one of France's most popular singers during the late '60s and '70s, initially building his name with stylized adaptations of folk and country material from his birthplace. As his career blossomed, Dassin turned increasingly to traditional-style chansons penned by some of the genre's best writers, scoring an all-time classic with his 1975 smash "L'Eté Indien." Notorious for his perfectionism, Dassin could play the introverted romantic, but his persona also played off of American archetypes and imagery. His premature death of a heart attack in 1980 robbed French pop of one of its greatest modern-day practitioners…

~ allmusic
Joe Dassin - Les Femmes De Ma Vie `78 & 15 Ans Deja… `78 (2001):

Joe Dassin - Les Femmes De Ma Vie `78 & 15 Ans Deja... `78 (2001)

Tracklist:

Les Femmes De Ma Vie 1978:

01. La femme ideale (Angelina)
02. La premiere femme de ma vie
03. Noisette et Cassidy
04. La demoiselle de deshonneur
05. Dans les yeux d'Emilie
06. Quand on sera deux
07. Maria
08. Mon copain Julie
09. Marie-Ange
10. J'ai craque
11. Petit ballon
12. La rue Marie-Laurence

15 Ans Deja… 1978:

13. Un lord anglais
14. Toi, le refrain de ma vie
15. La beaute du diable
16. Happy birthday
17. La fan
18. La vie se chante, la vie se pleure
19. Darlin'
20. Pour le plaisir de partir
21. Cote banjo, cote violon
22. Qu'est-ce que tu fais de moi?

Bonus Tracks:

23. Oh, Champs Elysees
24. Melanie

Exact Audio Copy V1.3 from 2. September 2016

Отчёт EAC об извлечении, выполненном 21. июня 2018, 16:26

Joe Dassin / Les femmes de ma vie - 15 ans deja…

Дисковод: PLEXTOR DVDR PX-716A Adapter: 8 ID: 0

Режим чтения : Достоверность
Использование точного потока : Да
Отключение кэша аудио : Да
Использование указателей C2 : Нет

Коррекция смещения при чтении : 30
Способность читать области Lead-in и Lead-out : Нет
Заполнение пропущенных сэмплов тишиной : Да
Удаление блоков с тишиной в начале и конце : Нет
При вычислениях CRC использовались нулевые сэмплы : Да
Интерфейс : Установленный внешний ASPI-интерфейс

Выходной формат : Пользовательский кодировщик
Выбранный битрейт : 128 kBit/s
Качество : Высокий
Добавление ID3-тега : Нет
Утилита сжатия : C:\Program Files\Exact Audio Copy\FLAC\FLAC.EXE
Дополнительные параметры : -V -8 -T "Genre=%genre%" -T "Artist=%artist%" -T "Title=%title%" -T "Album=%albumtitle%" -T "Date=%year%" -T "Tracknumber=%tracknr%" -T "Comment=%comment%" %source%


TOC извлечённого CD

Трек | Старт | Длительность | Начальный сектор | Конечный сектор
––––––––––––––––––––––––––––––––––-
1 | 0:00.00 | 3:19.70 | 0 | 14994
2 | 3:19.70 | 2:20.50 | 14995 | 25544
3 | 5:40.45 | 2:54.44 | 25545 | 38638
4 | 8:35.14 | 2:50.47 | 38639 | 51435
5 | 11:25.61 | 3:46.59 | 51436 | 68444
6 | 15:12.45 | 3:04.49 | 68445 | 82293
7 | 18:17.19 | 4:04.60 | 82294 | 100653
8 | 22:22.04 | 3:07.04 | 100654 | 114682
9 | 25:29.08 | 3:22.22 | 114683 | 129854
10 | 28:51.30 | 2:31.17 | 129855 | 141196
11 | 31:22.47 | 3:03.09 | 141197 | 154930
12 | 34:25.56 | 2:39.55 | 154931 | 166910
13 | 37:05.36 | 2:53.02 | 166911 | 179887
14 | 39:58.38 | 5:13.06 | 179888 | 203368
15 | 45:11.44 | 2:23.21 | 203369 | 214114
16 | 47:34.65 | 4:50.37 | 214115 | 235901
17 | 52:25.27 | 2:44.00 | 235902 | 248201
18 | 55:09.27 | 4:15.02 | 248202 | 267328
19 | 59:24.29 | 3:14.03 | 267329 | 281881
20 | 62:38.32 | 2:53.20 | 281882 | 294876
21 | 65:31.52 | 3:05.57 | 294877 | 308808
22 | 68:37.34 | 3:27.06 | 308809 | 324339
23 | 72:04.40 | 2:40.44 | 324340 | 336383
24 | 74:45.09 | 2:45.36 | 336384 | 348794


Характеристики диапазона извлечения и сообщения об ошибках

Выбранный диапазон

Имя файла I:\MOI_RAZDACI\Joe Dassin CD-Maximum\Joe.Dassin_CD.Maximum_7.CD_2001\Joe.Dassin_CD.Maximum_7.CD_2001\CD-6 Les femmes de ma vie 1978. 15 ans deja… 1978\Joe Dassin - Les femmes de ma vie - 15 ans deja….wav

Пиковый уровень 100.0 %
Скорость извлечения 1.9 X
Качество диапазона 99.9 %
CRC теста 8A29C821
CRC копии 8A29C821
Копирование… OK

Ошибок не произошло


AccurateRip: сводка

Трек 1 : извлечено точно (доверие 2) [244B7835] (AR v2)
Трек 2 : извлечено точно (доверие 2) [7E6DC41A] (AR v2)
Трек 3 : извлечено точно (доверие 2) [609D1802] (AR v2)
Трек 4 : извлечено точно (доверие 2) [4E86567E] (AR v2)
Трек 5 : извлечено точно (доверие 2) [F91AB4C5] (AR v2)
Трек 6 : извлечено точно (доверие 2) [A24F264D] (AR v2)
Трек 7 : извлечено точно (доверие 2) [86BA5FF4] (AR v2)
Трек 8 : извлечено точно (доверие 2) [DD571AC8] (AR v2)
Трек 9 : извлечено точно (доверие 2) [420B37AF] (AR v2)
Трек 10 : извлечено точно (доверие 2) [83104A5D] (AR v2)
Трек 11 : извлечено точно (доверие 2) [2B4B79D1] (AR v2)
Трек 12 : извлечено точно (доверие 2) [52A11A93] (AR v2)
Трек 13 : извлечено точно (доверие 2) [22EA171A] (AR v2)
Трек 14 : извлечено точно (доверие 2) [7A7CCD2E] (AR v2)
Трек 15 : извлечено точно (доверие 2) [0DFB9DDD] (AR v2)
Трек 16 : извлечено точно (доверие 2) [CFE36C25] (AR v2)
Трек 17 : извлечено точно (доверие 2) [6D52FFD7] (AR v2)
Трек 18 : извлечено точно (доверие 2) [0CEFC6F8] (AR v2)
Трек 19 : извлечено точно (доверие 2) [403D1CDC] (AR v2)
Трек 20 : извлечено точно (доверие 2) [FF6043A1] (AR v2)
Трек 21 : извлечено точно (доверие 2) [09355F36] (AR v2)
Трек 22 : извлечено точно (доверие 1) [B3FA1212] (AR v2)
Трек 23 : извлечено точно (доверие 1) [28BE8671] (AR v2)
Трек 24 : извлечено точно (доверие 1) [16215756] (AR v2)

Все треки извлечены точно

Конец отчёта

–– CUETools DB Plugin V2.1.6

[CTDB TOCID: QzW4MGY1bdaqdpT5GZr4i2icIdE-] found
Submit result: QzW4MGY1bdaqdpT5GZr4i2icIdE- has been confirmed
Track | CTDB Status
1 | (1/1) Accurately ripped
2 | (1/1) Accurately ripped
3 | (1/1) Accurately ripped
4 | (1/1) Accurately ripped
5 | (1/1) Accurately ripped
6 | (1/1) Accurately ripped
7 | (1/1) Accurately ripped
8 | (1/1) Accurately ripped
9 | (1/1) Accurately ripped
10 | (1/1) Accurately ripped
11 | (1/1) Accurately ripped
12 | (1/1) Accurately ripped
13 | (1/1) Accurately ripped
14 | (1/1) Accurately ripped
15 | (1/1) Accurately ripped
16 | (1/1) Accurately ripped
17 | (1/1) Accurately ripped
18 | (1/1) Accurately ripped
19 | (1/1) Accurately ripped
20 | (1/1) Accurately ripped
21 | (1/1) Accurately ripped
22 | (1/1) Accurately ripped
23 | (1/1) Accurately ripped
24 | (1/1) Accurately ripped


==== Контрольная сумма отчёта 67073C42AFCF609A0938E2C482DA8FE48E7019E9853C2EB23EA188B1171E8A06 ====


[CUETools log; Date: 15.07.2018 11:06:39; Version: 2.1.5]
[AccurateRip ID: 00421fa5-04825b9b-51122a18] found.
Track [ CRC | V2 ] Status
01 [405b65af|244b7835] (0+2/2) Accurately ripped
02 [c2a447d8|7e6dc41a] (0+2/2) Accurately ripped
03 [933c1fd4|609d1802] (0+2/2) Accurately ripped
04 [241f4792|4e86567e] (0+2/2) Accurately ripped
05 [40f37a7f|f91ab4c5] (0+2/2) Accurately ripped
06 [ec3adeab|a24f264d] (0+2/2) Accurately ripped
07 [0356f00a|86ba5ff4] (0+2/2) Accurately ripped
08 [c80f2ba4|dd571ac8] (0+2/2) Accurately ripped
09 [719b1244|420b37af] (0+2/2) Accurately ripped
10 [cefe0fb9|83104a5d] (0+2/2) Accurately ripped
11 [8d8fd97a|2b4b79d1] (0+2/2) Accurately ripped
12 [6f1306a9|52a11a93] (0+2/2) Accurately ripped
13 [78d89f4f|22ea171a] (0+2/2) Accurately ripped
14 [9c183d4f|7a7ccd2e] (0+2/2) Accurately ripped
15 [b6f5c4a0|0dfb9ddd] (0+2/2) Accurately ripped
16 [c7a76442|cfe36c25] (0+2/2) Accurately ripped
17 [1615603c|6d52ffd7] (0+2/2) Accurately ripped
18 [858c6a02|0cefc6f8] (0+2/2) Accurately ripped
19 [48e54a00|403d1cdc] (0+2/2) Accurately ripped
20 [7e339997|ff6043a1] (0+2/2) Accurately ripped
21 [814f8890|09355f36] (0+2/2) Accurately ripped
22 [2500d446|b3fa1212] (0+1/1) Accurately ripped
23 [988bd7ed|28be8671] (0+1/1) Accurately ripped
24 [1a0e92f1|16215756] (0+1/1) Accurately ripped

Track Peak [ CRC32 ] [W/O NULL] [ LOG ]
– 100,0 [8A29C821] [98B418B5] CRC32
01 98,8 [2F8BCFF2] [CB50347E]
02 94,7 [FE99D271] [61681857]
03 96,2 [F2E2E0B1] [C0A5FFC0]
04 91,1 [283C14CF] [FC9B8A6C]
05 96,7 [D6A62CD8] [6D7D42AB]
06 97,1 [EE3B9B62] [5F29F6D4]
07 94,9 [59F7F486] [55167922]
08 95,0 [68B6D39F] [697EE2A7]
09 95,6 [3A1DD540] [2C185F6E]
10 90,0 [EC117F19] [393D332D]
11 91,4 [84D9FF41] [93129608]
12 84,9 [A206F800] [C4D16134]
13 96,1 [7A2E58B6] [124B9E59]
14 91,6 [4A268487] [12B57993]
15 98,4 [3D945607] [6FC71A77]
16 91,1 [FA7B87F2] [D2A7FBCA]
17 82,4 [0436D0C2] [13B91F89]
18 98,3 [272257E7] [57F2CD37]
19 95,9 [DCE8CB6F] [5C48ADC9]
20 95,5 [D3935C10] [AE204416]
21 94,6 [7701AE7E] [6B54EB90]
22 94,8 [1448FE37] [95615753]
23 100,0 [D92BBB4B] [901B53EE]
24 100,0 [E87FAB71] [E4A3130D]


Joe Dassin - Les Femmes De Ma Vie `78 & 15 Ans Deja... `78 (2001)

All thanks go to the original releaser

Joe Dassin or Joe Dassin in my Blog

Download Joe Dassin - Les Femmes De Ma Vie `78 & 15 Ans Deja… `78 (2001):