Tags
Language
Tags

Joe Roland - Vibe Players Of Bethlehem, Vol. 2 (1955) [Reissue 1994]

Posted By: gribovar
Joe Roland - Vibe Players Of Bethlehem, Vol. 2 (1955) [Reissue 1994]

Joe Roland - Vibe Players Of Bethlehem, Vol. 2 (1955) [Reissue 1994]
EAC Rip | FLAC (tracks+.cue+log) - 167 MB | MP3 CBR 320 kbps (LAME 3.93) - 100 MB | Covers - 19 MB
Genre: Jazz, Bop, Mainstream Jazz | RAR 3% Rec. | Label: Berhfehem (30-30172)

Joe Roland was a talented but now long-forgotten vibraphonist whose boppish style sometimes sounds similar to Milt Jackson. He recorded as a leader for Rainbow (two numbers in 1949), Savoy (in 1950 and 1954), and six selections for Sesco from 1953-1954, but was best-known for his period as a member of the George Shearing Quintet. This album was the vibist's final set as a leader. The music is quite worthwhile, mainstream bop of the period. Roland alternates standards with a few originals, including "Stairway to the Steinway" and "Goodbye Bird" (for Charlie Parker, who had died five days earlier). A worthwhile reissue.
Tracklist:
01. Easy Living
02. Stairway To The Steinway
03. Soft Winds
04. Teach Me Tonight
05. Robin
06. Sweet Lorraine
07. Goodbye Bird
08. After You've Gone
09. Anticipation
11. The Moon Got In My Eyes
12. Streets Of Dreams

Total time: 42:40

Exact Audio Copy V0.99 prebeta 4 from 23. January 2008

EAC extraction logfile from 14. January 2011, 16:45

Joe Roland / Vibe Players Of Bethlehem, Vol. 2

Used drive : HL-DT-STDVD-RAM GH22NP20 Adapter: 0 ID: 0

Read mode : Secure
Utilize accurate stream : Yes
Defeat audio cache : Yes
Make use of C2 pointers : No

Read offset correction : 102
Overread into Lead-In and Lead-Out : No
Fill up missing offset samples with silence : Yes
Delete leading and trailing silent blocks : No
Null samples used in CRC calculations : Yes
Used interface : Installed external ASPI interface
Gap handling : Appended to previous track

Used output format : User Defined Encoder
Selected bitrate : 320 kBit/s
Quality : High
Add ID3 tag : No
Command line compressor : C:\Program Files\Exact Audio Copy\Flac\flac.exe
Additional command line options : -V -8 -T "artist=%a" -T "title=%t" -T "album=%g" -T "date=%y" -T "tracknumber=%n" -T "genre=%m" %s


TOC of the extracted CD

Track | Start | Length | Start sector | End sector
––––––––––––––––––––––––––––-
1 | 0:00.00 | 5:25.25 | 0 | 24399
2 | 5:25.25 | 3:05.60 | 24400 | 38334
3 | 8:31.10 | 2:30.40 | 38335 | 49624
4 | 11:01.50 | 2:42.62 | 49625 | 61836
5 | 13:44.37 | 4:01.73 | 61837 | 79984
6 | 17:46.35 | 3:31.55 | 79985 | 95864
7 | 21:18.15 | 4:22.50 | 95865 | 115564
8 | 25:40.65 | 4:54.60 | 115565 | 137674
9 | 30:35.50 | 3:52.37 | 137675 | 155111
10 | 34:28.12 | 3:44.30 | 155112 | 171941
11 | 38:12.42 | 1:48.10 | 171942 | 180051
12 | 40:00.52 | 2:39.48 | 180052 | 192024


Track 1

Filename D:\music\Musicgate's rips\Joe Roland - Vibe Players Of Bethlehem, Vol. 2 - 1994\01 - Easy Living.wav

Pre-gap length 0:00:02.00

Peak level 94.6 %
Track quality 100.0 %
Test CRC C7844ADC
Copy CRC C7844ADC
Track not present in AccurateRip database
Copy OK

Track 2

Filename D:\music\Musicgate's rips\Joe Roland - Vibe Players Of Bethlehem, Vol. 2 - 1994\02 - Stairway To The Steinway.wav

Pre-gap length 0:00:02.00

Peak level 94.6 %
Track quality 100.0 %
Test CRC 59BE4ACF
Copy CRC 59BE4ACF
Track not present in AccurateRip database
Copy OK

Track 3

Filename D:\music\Musicgate's rips\Joe Roland - Vibe Players Of Bethlehem, Vol. 2 - 1994\03 - Soft Winds.wav

Pre-gap length 0:00:02.37

Peak level 94.6 %
Track quality 100.0 %
Test CRC EA1F787C
Copy CRC EA1F787C
Track not present in AccurateRip database
Copy OK

Track 4

Filename D:\music\Musicgate's rips\Joe Roland - Vibe Players Of Bethlehem, Vol. 2 - 1994\04 - Teach Me Tonight.wav

Pre-gap length 0:00:01.24

Peak level 93.0 %
Track quality 100.0 %
Test CRC 0F005078
Copy CRC 0F005078
Track not present in AccurateRip database
Copy OK

Track 5

Filename D:\music\Musicgate's rips\Joe Roland - Vibe Players Of Bethlehem, Vol. 2 - 1994\05 - Robin.wav

Pre-gap length 0:00:02.40

Peak level 94.6 %
Track quality 100.0 %
Test CRC ED25D5F9
Copy CRC ED25D5F9
Track not present in AccurateRip database
Copy OK

Track 6

Filename D:\music\Musicgate's rips\Joe Roland - Vibe Players Of Bethlehem, Vol. 2 - 1994\06 - Sweet Lorraine.wav

Pre-gap length 0:00:00.84

Peak level 94.6 %
Track quality 100.0 %
Test CRC FFAB2982
Copy CRC FFAB2982
Track not present in AccurateRip database
Copy OK

Track 7

Filename D:\music\Musicgate's rips\Joe Roland - Vibe Players Of Bethlehem, Vol. 2 - 1994\07 - Goodbye Bird.wav

Pre-gap length 0:00:00.86

Peak level 94.6 %
Track quality 99.9 %
Test CRC AEEC300E
Copy CRC AEEC300E
Track not present in AccurateRip database
Copy OK

Track 8

Filename D:\music\Musicgate's rips\Joe Roland - Vibe Players Of Bethlehem, Vol. 2 - 1994\08 - After You've Gone.wav

Pre-gap length 0:00:02.60

Peak level 94.6 %
Track quality 100.0 %
Test CRC BB9D74CE
Copy CRC BB9D74CE
Track not present in AccurateRip database
Copy OK

Track 9

Filename D:\music\Musicgate's rips\Joe Roland - Vibe Players Of Bethlehem, Vol. 2 - 1994\09 - Anticipation.wav

Pre-gap length 0:00:03.50

Peak level 94.6 %
Track quality 100.0 %
Test CRC B0A9D29B
Copy CRC B0A9D29B
Track not present in AccurateRip database
Copy OK

Track 10

Filename D:\music\Musicgate's rips\Joe Roland - Vibe Players Of Bethlehem, Vol. 2 - 1994\10 - I Cover The Waterfront.wav

Pre-gap length 0:00:01.16

Peak level 81.1 %
Track quality 100.0 %
Test CRC 19FE6F65
Copy CRC 19FE6F65
Track not present in AccurateRip database
Copy OK

Track 11

Filename D:\music\Musicgate's rips\Joe Roland - Vibe Players Of Bethlehem, Vol. 2 - 1994\11 - The Moon Got In My Eyes.wav

Pre-gap length 0:00:02.46

Peak level 94.6 %
Track quality 100.0 %
Test CRC 33450578
Copy CRC 33450578
Track not present in AccurateRip database
Copy OK

Track 12

Filename D:\music\Musicgate's rips\Joe Roland - Vibe Players Of Bethlehem, Vol. 2 - 1994\12 - Streets Of Dreams.wav

Pre-gap length 0:00:01.26

Peak level 94.6 %
Track quality 100.0 %
Test CRC 051EFF0E
Copy CRC 051EFF0E
Track not present in AccurateRip database
Copy OK


None of the tracks are present in the AccurateRip database

No errors occurred

End of status report

[CUETools log; Date: 09.12.2021 18:29:47; Version: 2.1.4]
[CTDB TOCID: NxEK7eWkQ1JW3opp5KzihpbUT9Y-] found.
Track | CTDB Status
1 | (2/2) Accurately ripped
2 | (2/2) Accurately ripped
3 | (2/2) Accurately ripped
4 | (2/2) Accurately ripped
5 | (2/2) Accurately ripped
6 | (2/2) Accurately ripped
7 | (2/2) Accurately ripped
8 | (2/2) Accurately ripped
9 | (2/2) Accurately ripped
10 | (2/2) Accurately ripped
11 | (2/2) Accurately ripped
12 | (2/2) Accurately ripped
[AccurateRip ID: 0013df92-00b868ea-910a000c] found.
Track [ CRC | V2 ] Status
01 [c39d6b68|d2515790] (0+4/4) Accurately ripped
02 [3db57e40|9466056a] (0+4/4) Accurately ripped
03 [32ecb5c9|3eb4d8ee] (0+4/4) Accurately ripped
04 [cb51509a|ffde884e] (0+4/4) Accurately ripped
05 [27473c78|e8af0047] (0+4/4) Accurately ripped
06 [b8689c87|5cd323c4] (0+4/4) Accurately ripped
07 [960b4201|98febead] (0+4/4) Accurately ripped
08 [490e2b4e|3e5a25d2] (0+4/4) Accurately ripped
09 [1bebd466|2f7164df] (0+4/4) Accurately ripped
10 [cae239df|14e7fe94] (0+4/4) Accurately ripped
11 [9d42e458|f4eccacd] (0+4/4) Accurately ripped
12 [efaa15ed|656bea74] (0+4/4) Accurately ripped

Track Peak [ CRC32 ] [W/O NULL] [ LOG ]
– 94,6 [31624B17] [69507879]
01 94,6 [C7844ADC] [66D00EEE] CRC32
02 94,6 [59BE4ACF] [1D42082D] CRC32
03 94,6 [EA1F787C] [EAF38076] CRC32
04 93,0 [0F005078] [DDCB4093] CRC32
05 94,6 [ED25D5F9] [CB284556] CRC32
06 94,6 [FFAB2982] [69F61AED] CRC32
07 94,6 [AEEC300E] [920A5900] CRC32
08 94,6 [BB9D74CE] [3D9C9935] CRC32
09 94,6 [B0A9D29B] [B7CE1A1B] CRC32
10 81,1 [19FE6F65] [5C2D1138] CRC32
11 94,6 [33450578] [25D605BD] CRC32
12 94,6 [051EFF0E] [F025B349] CRC32

Thanks to Musicgate