Tags
Language
Tags

Johannes Somary, AmorArtis Orchestra - Handel: Sosarme (1994)

Posted By: ArlegZ
Johannes Somary, AmorArtis Orchestra - Handel: Sosarme (1994)

Johannes Somary, AmorArtis Orchestra - Handel: Sosarme (1994)
EAC | FLAC | Image (Cue & Log) ~ 590 Mb | Total time: 60:57+68:08 | Scans included
Classical | Label: Newport Classic | NPD 85575 | Recorded: 1993

Baroque conductor Johannes Somary directs a distinguished cast led by John Aler, Julianne Baird, countertenor Drew Minter, D’Anna Fortunata, Jennifer Lane, Nathaniel Watson, Raymond Pellerin and the Armor Artis Orchestra. A tale of violent court intrigue civil strife, frustrated love, ambition and suicide.

Performer:
Haliate - John Aler
Elmira - Julianne Baird
Sosarme - D'Anna Fortunato
Melo - Drew Minter
Erenice - Jennifer Lane
Varo - Nathaniel Watson
Arcone - Raymond Pellerin
Tagkhanic Chorale
AmorArtis Orchestra
Conductor - Johannes Somary

Track List:
CD1:
01. Overture
02. Atto I. Recitativo: Di mio padre al furore
03. Accompagnato Argone: Voi, miei fidi compagni
04. Coro: Alla stragge, alla morte, alla vittoria!
05. Accompagnato Elmira, Erenice: Madre e Regina!
06. Arioso Elmira: Rendi'l sereno il ciglio
07. Recitativo: Giusti Numi
08. Aria Erenice: Forte inciampo al suo furore
09. Recitativo: Melo, mio prence
10. Aria Altomaro: Fra l'ombre e gl'orrori
11. Recitativo: Come più dell'usato
12. Aria Melo: Sì, minaccia e vinta l'ira
13. Recitativo: Non più contese
14. Aria Sosarme: Il mio valore ch'albergo in petto
15. Recitativo e Aria Haliate: Così dunque … La turba
16. Recitativo: Amici, troppo oscuro
17. Coro: Alla stragge, alla morte, alla vittoria!
18. Recitativo: Mà chi ritorna
19. Recitativo e Aria Elmira: Oh Diva Hecate … Dite pace
20. Atto II. Arioso Elmira: Padre, germano, e sposo
21. Recitativo e Fanfara: E ben dall'alta torre
22. Duetto Argone, Erenice: Se m'ascolti… ti dirò
23. Recitativo: Mio Rè, l'ultimo sforzo
24. Aria Haliate: Se discordia ci disciolse
CD2:
01. Recitativo: E così tu disprezzi
02. Aria Melo: Sò ch'il Ciel ben spesso gode
03. Recitativo e Aria Altomaro: Quanto più Melo … Sento il cor
04. Recitativo: Grazie al Cielo, Signor
05. Duetto Sosarme, Elmira: Per le porte del tormento
06. Recitativo: Signor, tuo regio
07. Aria Sosarme: Alle sfere della gloria
08. Coro: Viva! viva e regni fortunato
09. Recitativo: Son tuo congiunto
10. Aria Erenice: Vado al campo
11. Recitativo: Mio sposo
12. Aria Sosarme: In mille dolci
13. Recitativo e Aria Elmira: Parmi ch'un dolce … Vola l'augello
14. Atto III. Sinfonia
15. Recitativo: Mi siegue la Regina
16. Aria Haliate: S'io cadrò per tuo consiglio
17. Recitativo: Melo, dov'è il tuo zelo?
18. Aria Erenice: Cuor di madre
19. Recitativo e Aria Melo: A deluder … Sincero affetto
20. Recitativo: Per la segreta porta
21. Recitativo e Aria Altomaro: Altomaro … Tiene Giove
22. Recitativo: Signor, qui giunge Argone
23. Duetto Elmira, Sosarme: Tu caro, caro sei
24. Recitativo e Coro: Fugga da questo … Dopo l'ire


Exact Audio Copy V1.5 from 20. February 2020

EAC extraction logfile from 22. August 2020, 11:49

Johannes Somary, AmorArtis Orchestra / Handel - Sosarme CD1

Used drive : PIONEER DVD-RW DVR-218L Adapter: 1 ID: 0

Read mode : Secure
Utilize accurate stream : Yes
Defeat audio cache : Yes
Make use of C2 pointers : No

Read offset correction : 6
Overread into Lead-In and Lead-Out : No
Fill up missing offset samples with silence : Yes
Delete leading and trailing silent blocks : No
Null samples used in CRC calculations : Yes
Used interface : Native Win32 interface for Win NT & 2000

Used output format : User Defined Encoder
Selected bitrate : 128 kBit/s
Quality : High
Add ID3 tag : No
Command line compressor : C:\Program Files\Exact Audio Copy\Flac\flac.exe
Additional command line options : -V -8 -T "Date=%year%" -T "Genre=%genre%" %source%


TOC of the extracted CD

Track | Start | Length | Start sector | End sector
––––––––––––––––––––––––––––-
1 | 0:00.32 | 4:29.58 | 32 | 20264
2 | 4:30.15 | 0:43.62 | 20265 | 23551
3 | 5:14.02 | 1:04.08 | 23552 | 28359
4 | 6:18.10 | 0:53.65 | 28360 | 32399
5 | 7:12.00 | 2:01.52 | 32400 | 41526
6 | 9:13.52 | 2:23.73 | 41527 | 52324
7 | 11:37.50 | 0:25.25 | 52325 | 54224
8 | 12:03.00 | 4:03.45 | 54225 | 72494
9 | 16:06.45 | 1:06.47 | 72495 | 77491
10 | 17:13.17 | 4:30.60 | 77492 | 97801
11 | 21:44.02 | 1:02.55 | 97802 | 102506
12 | 22:46.57 | 5:09.25 | 102507 | 125706
13 | 27:56.07 | 1:07.50 | 125707 | 130781
14 | 29:03.57 | 4:29.43 | 130782 | 150999
15 | 33:33.25 | 5:39.52 | 151000 | 176476
16 | 39:13.02 | 1:16.35 | 176477 | 182211
17 | 40:29.37 | 0:50.68 | 182212 | 186029
18 | 41:20.30 | 0:48.52 | 186030 | 189681
19 | 42:09.07 | 5:58.28 | 189682 | 216559
20 | 48:07.35 | 1:37.25 | 216560 | 223859
21 | 49:44.60 | 2:00.32 | 223860 | 232891
22 | 51:45.17 | 2:59.25 | 232892 | 246341
23 | 54:44.42 | 0:53.55 | 246342 | 250371
24 | 55:38.22 | 5:15.43 | 250372 | 274039


Range status and errors

Selected range

Filename C:\ArlegZ\Johannes Somary - Handel - Sosarme CD1.wav

Peak level 71.2 %
Extraction speed 1.8 X
Range quality 100.0 %
Test CRC FA516DA9
Copy CRC FA516DA9
Copy OK

No errors occurred


AccurateRip summary

Track 1 accurately ripped (confidence 2) [C1AFA667] (AR v2)
Track 2 accurately ripped (confidence 2) [360DC072] (AR v2)
Track 3 accurately ripped (confidence 2) [E2A1DCAC] (AR v2)
Track 4 accurately ripped (confidence 2) [C6BED8E0] (AR v2)
Track 5 accurately ripped (confidence 2) [6EAF6890] (AR v2)
Track 6 accurately ripped (confidence 2) [A31DDB79] (AR v2)
Track 7 accurately ripped (confidence 2) [D90ED3F4] (AR v2)
Track 8 accurately ripped (confidence 2) [1849328B] (AR v2)
Track 9 accurately ripped (confidence 2) [5D01FE90] (AR v2)
Track 10 accurately ripped (confidence 2) [C998C306] (AR v2)
Track 11 accurately ripped (confidence 2) [FEBB1D35] (AR v2)
Track 12 accurately ripped (confidence 2) [E0887B5B] (AR v2)
Track 13 accurately ripped (confidence 2) [0E87F85F] (AR v2)
Track 14 accurately ripped (confidence 2) [A55B5F99] (AR v2)
Track 15 accurately ripped (confidence 2) [30FDC795] (AR v2)
Track 16 accurately ripped (confidence 2) [94060EA4] (AR v2)
Track 17 accurately ripped (confidence 2) [9DE5FE53] (AR v2)
Track 18 accurately ripped (confidence 2) [917B60BB] (AR v2)
Track 19 accurately ripped (confidence 2) [F900E12F] (AR v2)
Track 20 accurately ripped (confidence 2) [259207FD] (AR v2)
Track 21 accurately ripped (confidence 2) [AEA13AA6] (AR v2)
Track 22 accurately ripped (confidence 2) [9EBFBCAA] (AR v2)
Track 23 accurately ripped (confidence 2) [D706C9FC] (AR v2)
Track 24 accurately ripped (confidence 2) [3387A6D9] (AR v2)

All tracks accurately ripped

End of status report

–– CUETools DB Plugin V2.1.6

[CTDB TOCID: 1gV_S5gwsUFVplvLeTeuwl8g8XI-] found
Submit result: 1gV_S5gwsUFVplvLeTeuwl8g8XI- has been confirmed
Track | CTDB Status
1 | (3/3) Accurately ripped
2 | (3/3) Accurately ripped
3 | (3/3) Accurately ripped
4 | (3/3) Accurately ripped
5 | (3/3) Accurately ripped
6 | (3/3) Accurately ripped
7 | (3/3) Accurately ripped
8 | (3/3) Accurately ripped
9 | (3/3) Accurately ripped
10 | (3/3) Accurately ripped
11 | (3/3) Accurately ripped
12 | (3/3) Accurately ripped
13 | (3/3) Accurately ripped
14 | (3/3) Accurately ripped
15 | (3/3) Accurately ripped
16 | (3/3) Accurately ripped
17 | (3/3) Accurately ripped
18 | (3/3) Accurately ripped
19 | (3/3) Accurately ripped
20 | (3/3) Accurately ripped
21 | (3/3) Accurately ripped
22 | (3/3) Accurately ripped
23 | (3/3) Accurately ripped
24 | (3/3) Accurately ripped


==== Log checksum 215F12D7EF17E26E69922B039A2470B7B5F709A34D9BB22CA8A61587654F3C43 ====


Exact Audio Copy V1.5 from 20. February 2020

EAC extraction logfile from 22. August 2020, 13:02

Johannes Somary, AmorArtis Orchestra / Handel - Sosarme CD2

Used drive : PIONEER DVD-RW DVR-218L Adapter: 1 ID: 0

Read mode : Secure
Utilize accurate stream : Yes
Defeat audio cache : Yes
Make use of C2 pointers : No

Read offset correction : 6
Overread into Lead-In and Lead-Out : No
Fill up missing offset samples with silence : Yes
Delete leading and trailing silent blocks : No
Null samples used in CRC calculations : Yes
Used interface : Native Win32 interface for Win NT & 2000

Used output format : User Defined Encoder
Selected bitrate : 128 kBit/s
Quality : High
Add ID3 tag : No
Command line compressor : C:\Program Files\Exact Audio Copy\Flac\flac.exe
Additional command line options : -V -8 -T "Date=%year%" -T "Genre=%genre%" %source%


TOC of the extracted CD

Track | Start | Length | Start sector | End sector
––––––––––––––––––––––––––––-
1 | 0:00.32 | 0:30.38 | 32 | 2319
2 | 0:30.70 | 5:18.35 | 2320 | 26204
3 | 5:49.30 | 5:16.35 | 26205 | 49939
4 | 11:05.65 | 1:10.30 | 49940 | 55219
5 | 12:16.20 | 3:24.55 | 55220 | 70574
6 | 15:41.00 | 1:27.32 | 70575 | 77131
7 | 17:08.32 | 3:06.60 | 77132 | 91141
8 | 20:15.17 | 1:45.23 | 91142 | 99039
9 | 22:00.40 | 2:30.50 | 99040 | 110339
10 | 24:31.15 | 2:45.07 | 110340 | 122721
11 | 27:16.22 | 0:42.35 | 122722 | 125906
12 | 27:58.57 | 2:47.03 | 125907 | 138434
13 | 30:45.60 | 4:21.67 | 138435 | 158076
14 | 35:07.52 | 0:48.18 | 158077 | 161694
15 | 35:55.70 | 1:23.42 | 161695 | 167961
16 | 37:19.37 | 5:00.53 | 167962 | 190514
17 | 42:20.15 | 1:04.52 | 190515 | 195366
18 | 43:24.67 | 4:27.30 | 195367 | 215421
19 | 47:52.22 | 5:58.20 | 215422 | 242291
20 | 53:50.42 | 0:51.50 | 242292 | 246166
21 | 54:42.17 | 3:29.05 | 246167 | 261846
22 | 58:11.22 | 3:19.48 | 261847 | 276819
23 | 61:30.70 | 2:26.50 | 276820 | 287819
24 | 63:57.45 | 4:08.62 | 287820 | 306481


Range status and errors

Selected range

Filename C:\ArlegZ\Johannes Somary - Handel - Sosarme CD2.wav

Peak level 74.5 %
Extraction speed 1.9 X
Range quality 99.9 %
Test CRC A09C0D9A
Copy CRC A09C0D9A
Copy OK

No errors occurred


AccurateRip summary

Track 1 accurately ripped (confidence 2) [8F0A2142] (AR v2)
Track 2 accurately ripped (confidence 2) [1D3A4FD2] (AR v2)
Track 3 accurately ripped (confidence 2) [765ACEB9] (AR v2)
Track 4 accurately ripped (confidence 2) [1F6083AA] (AR v2)
Track 5 accurately ripped (confidence 2) [79DCAD88] (AR v2)
Track 6 accurately ripped (confidence 2) [B07EC1EB] (AR v2)
Track 7 accurately ripped (confidence 2) [4A42B1FE] (AR v2)
Track 8 accurately ripped (confidence 2) [ABCC678C] (AR v2)
Track 9 accurately ripped (confidence 2) [48450FB0] (AR v2)
Track 10 accurately ripped (confidence 2) [32158A3E] (AR v2)
Track 11 accurately ripped (confidence 2) [1F78BC0D] (AR v2)
Track 12 accurately ripped (confidence 2) [2731F0A7] (AR v2)
Track 13 accurately ripped (confidence 2) [C8C55D0F] (AR v2)
Track 14 accurately ripped (confidence 2) [53ADE08A] (AR v2)
Track 15 accurately ripped (confidence 2) [20B144B2] (AR v2)
Track 16 accurately ripped (confidence 2) [EAE045AB] (AR v2)
Track 17 accurately ripped (confidence 2) [451AD78A] (AR v2)
Track 18 accurately ripped (confidence 2) [A1735187] (AR v2)
Track 19 accurately ripped (confidence 2) [326D8472] (AR v2)
Track 20 accurately ripped (confidence 2) [E992E2FE] (AR v2)
Track 21 accurately ripped (confidence 2) [628EA442] (AR v2)
Track 22 accurately ripped (confidence 2) [8B89E00E] (AR v2)
Track 23 accurately ripped (confidence 2) [9CE78666] (AR v2)
Track 24 accurately ripped (confidence 2) [2500F3D7] (AR v2)

All tracks accurately ripped

End of status report

–– CUETools DB Plugin V2.1.6

[CTDB TOCID: s22m5.TH3mXsUJG.QsqA4eyGM4Y-] found
Submit result: s22m5.TH3mXsUJG.QsqA4eyGM4Y- has been confirmed
Track | CTDB Status
1 | (3/3) Accurately ripped
2 | (3/3) Accurately ripped
3 | (3/3) Accurately ripped
4 | (3/3) Accurately ripped
5 | (3/3) Accurately ripped
6 | (3/3) Accurately ripped
7 | (3/3) Accurately ripped
8 | (3/3) Accurately ripped
9 | (3/3) Accurately ripped
10 | (3/3) Accurately ripped
11 | (3/3) Accurately ripped
12 | (3/3) Accurately ripped
13 | (3/3) Accurately ripped
14 | (3/3) Accurately ripped
15 | (3/3) Accurately ripped
16 | (3/3) Accurately ripped
17 | (3/3) Accurately ripped
18 | (3/3) Accurately ripped
19 | (3/3) Accurately ripped
20 | (3/3) Accurately ripped
21 | (3/3) Accurately ripped
22 | (3/3) Accurately ripped
23 | (3/3) Accurately ripped
24 | (3/3) Accurately ripped


==== Log checksum B8129039597358E626991B0E45564887AC46CAD17615451E50DAA3F0FA59B302 ====

Johannes Somary, AmorArtis Orchestra - Handel: Sosarme (1994)