Tags
Language
Tags

John Mayall - Live From Austin Texas (2007) [CD & DVD-5]

Posted By: v3122
John Mayall - Live From Austin Texas (2007) [CD & DVD-5]

John Mayall - Live From Austin Texas (2007)
EAC | Flac(Image) + Cue + Log & MP3 CBR 320Kbps
New West Records, NW6134 | ~ 393 or 132 Mb | Artwork(jpg) -> 3.63 Mb
DVD-5: NTSC 4:3 (720x480) VBR | LPCM, 2 ch / DTS, 6 ch
Blues, Blues Rock

John Mayall gets the star treatment in this installment of the fantastic LIVE FROM AUSTIN series, which features uncut performances from perhaps the greatest live televised music showcase ever, Austin City Limits. Throughout his career, Mayall has been more famous as a picker and pruner of talent–among the ranks of his famed Bluesbreakers stood Peter Green, Eric Clapton, and Mick Taylor–than as a bluesman in his own right, but here he challenges all comers with a confident set of blues classics and self-penned numbers, plus a wildly effusive stage persona. The set was originally recorded on September 13, 1993.

~ allmusic
John Mayall - Live From Austin Texas (2007):

John Mayall - Live From Austin Texas (2007) [CD & DVD-5]

Tracklist CD:

01. I Want To Go [03:51]
02. Ain't That Lovin' You Baby [06:47]
03. Maydell [04:05]
04. Wake Up Call [05:05]
05. I'm A Sucker For Love [07:14]
06. Nature's Disappearing [05:38]
07. I Could Cry [07:14]
08. The Bear [07:39]
09. Mail Order Mystics [08:25]

Exact Audio Copy V1.0 beta 2 from 29. April 2011

Отчёт EAC об извлечении, выполненном 27. июня 2011, 14:04

John Mayall / Live From Austin Texas

Дисковод: YAMAHA CRW-F1E Adapter: 1 ID: 0

Режим чтения : Достоверность
Использование точного потока : Да
Отключение кэша аудио : Да
Использование указателей C2 : Нет

Коррекция смещения при чтении : 733
Способность читать области Lead-in и Lead-out : Нет
Заполнение пропущенных сэмплов тишиной : Да
Удаление блоков с тишиной в начале и конце : Нет
При вычислениях CRC использовались нулевые сэмплы : Нет
Интерфейс : Встроенный Win32-интерфейс для Win NT/2000

Выходной формат : Внутренние WAV-операции
Формат сэмплов : 44.100 Гц; 16 бит; стерео


TOC извлечённого CD

Трек | Старт | Длительность | Начальный сектор | Конечный сектор
––––––––––––––––––––––––––––––––––-
1 | 0:00.00 | 3:51.04 | 0 | 17328
2 | 3:51.04 | 6:46.35 | 17329 | 47813
3 | 10:37.39 | 4:05.30 | 47814 | 66218
4 | 14:42.69 | 5:04.60 | 66219 | 89078
5 | 19:47.54 | 7:13.42 | 89079 | 121595
6 | 27:01.21 | 5:38.32 | 121596 | 146977
7 | 32:39.53 | 7:13.53 | 146978 | 179505
8 | 39:53.31 | 7:39.10 | 179506 | 213940
9 | 47:32.41 | 8:25.00 | 213941 | 251815


Характеристики диапазона извлечения и сообщения об ошибках

Выбранный диапазон

Имя файла D:\Temp\John Mayall - Live From Austin Texas.wav

Пиковый уровень 96.6 %
Скорость извлечения 4.8 X
Качество диапазона 99.9 %
CRC копии A0858886
Копирование… OK

Ошибок не произошло


AccurateRip: сводка

Трек 1 : извлечено точно (доверие 2) [5B047D6E] (AR v1)
Трек 2 : извлечено точно (доверие 2) [552C3B07] (AR v1)
Трек 3 : извлечено точно (доверие 2) [9A99F812] (AR v1)
Трек 4 : извлечено точно (доверие 2) [7C2874FF] (AR v1)
Трек 5 : извлечено точно (доверие 2) [0BE50A47] (AR v1)
Трек 6 : извлечено точно (доверие 2) [803B4AC6] (AR v1)
Трек 7 : извлечено точно (доверие 2) [BBB28B8C] (AR v1)
Трек 8 : извлечено точно (доверие 2) [E1507DC4] (AR v1)
Трек 9 : извлечено точно (доверие 2) [89EAB0ED] (AR v1)

Все треки извлечены точно

Конец отчёта

==== Контрольная сумма отчёта 9854846D7BF60D687AAFB5B8A4E4F6342D56FAC8F21E5C66B7BAB2BF764E909C ====


[CUETools log; Date: 25.11.2020 16:12:25; Version: 2.1.4]
[AccurateRip ID: 00114ec6-00821a87-860d1d09] found.
Track [ CRC | V2 ] Status
01 [5b047d6e|fcc09a09] (03+14/17) Accurately ripped
02 [552c3b07|eaa2545b] (03+14/17) Accurately ripped
03 [9a99f812|cb4d0dcb] (03+14/17) Accurately ripped
04 [7c2874ff|0e020b46] (03+14/17) Accurately ripped
05 [0be50a47|a8222b52] (03+14/17) Accurately ripped
06 [803b4ac6|c6df185e] (03+14/17) Accurately ripped
07 [bbb28b8c|d14d2e69] (03+14/17) Accurately ripped
08 [e1507dc4|39b1af60] (03+14/17) Accurately ripped
09 [89eab0ed|ca48e7a7] (03+14/17) Accurately ripped

Track Peak [ CRC32 ] [W/O NULL] [ LOG ]
– 96,6 [2DF7D748] [A0858886] W/O NULL
01 96,6 [5E302D4B] [0C048F31]
02 96,6 [AA5CA0C4] [480B6283]
03 96,6 [09E5B0F9] [129017CF]
04 96,6 [7C6C539D] [ECF92F92]
05 96,6 [CD3D018C] [6F7D89D0]
06 96,6 [CEB7F550] [3AA766FB]
07 96,6 [08AE687A] [A10F5DC8]
08 94,9 [CC215612] [28983649]
09 95,4 [66048A13] [F2D049AD]


John Mayall - Live From Austin Texas (2007) [CD & DVD-5]

Tracklist DVD:

01. I Want To Go [03:51]
02. Ain't That Lovin' You Baby [06:47]
03. Maydell [04:05]
04. Wake Up Call [05:05]
05. I'm A Sucker For Love [07:14]
06. Nature's Disappearing [05:38]
07. I Could Cry [07:14]
08. The Bear [07:39]
09. Mail Order Mystics [08:25]

Title: John Mayall 2007 - Live from Austin TX - DVD
Size: 2.88 Gb ( 3 022 226,00 KBytes ) - DVD-5
Enabled regions: 1, 2, 3, 4, 5, 6, 7, 8

VTS_01 :
Play Length: 00:00:26
Video: NTSC 4:3 (720x480) VBR
Audio:
Not specified (LinearPCM, 2 ch)

VTS_02 :
Play Length: 00:59:08
Video: NTSC 4:3 (720x480) VBR
Audio:
Not specified (LinearPCM, 2 ch)
Not specified (DTS, 6 ch)


John Mayall - Live From Austin Texas (2007) [CD & DVD-5]

John Mayall - Live From Austin Texas (2007) [CD & DVD-5]

John Mayall - Live From Austin Texas (2007) [CD & DVD-5]

John Mayall - Live From Austin Texas (2007) [CD & DVD-5]

John Mayall - Live From Austin Texas (2007) [CD & DVD-5]

John Mayall - Live From Austin Texas (2007) [CD & DVD-5]

All thanks go to the original releasers

John Mayall in my Blog

Download John Mayall - Live From Austin Texas (2007):