Tags
Language
Tags

John Oswald, David Prentice, Dominic Duval - Bloor (2001)

Posted By: v3122
John Oswald, David Prentice, Dominic Duval - Bloor (2001)

John Oswald, David Prentice, Dominic Duval - Bloor (2001)
EAC | Flac(Image) + Cue + Log & MP3 CBR 320Kbps
CIMP, 234 | ~ 298 or 175 Mb | Artwork(jpg) -> 22 Mb
Free Improvisation

~ Recorded at the Spirit Room, Rossie, N.Y., Sept. 26 & 27, 2000 ~

It may be difficult to believe that the wealth of sound here is the result of just three acoustic instruments, two of which are strings, but that is simply a testament to the power and forcefulness of these three players. The pieces are identified only by numbers: "Two," "Four," "Five," and so on, but that is irrelevant. Behind these nine improvisations there is an incredible originality that defies definition. You know you are in for a treat with David Prentice on violin and Dominic Duval on string bass, both of whom consistently resist categorization. When John Oswald's alto sax is added, the resulting fireworks do not merely shed sparks, but his deliberate, though forceful, attack leads to music of genuine wonder. Without the conventional timekeeper (there are no drums and Duval relinquishes the traditional role of his instrument), the saxophonist lets loose, bringing to mind stylists as diverse as Anthony Braxton, Evan Parker, and even, at times, Peter Brotzmann, though what is most marvelous about Oswald is that he is his own man. His spurts of notes lead to unarticulated lines that bend like a river gone amok, only to give way to clamorous strings. It all requires close attention, to be sure, but the effort is well worth it. You may not know what to call the results, but in an age of media hype, you can't help but call $Oswald an original voice, distanced from the flow of ordinary things.

by Steve Loewy, allmusic
John Oswald, David Prentice, Dominic Duval - Bloor (2001):

John Oswald, David Prentice, Dominic Duval - Bloor (2001)

Tracklist:

1 Two 8:29
2 Four 9:03
3 Five 8:18
4 Six 17:53
5 Nine 5:00
6 Ten 8:05
7 Eleven 6:55
8 Coda 6:32
9 Cadence 3:38

John Oswald - alto saxophone
David Prentice - violin
Dominic Duval - bass

Exact Audio Copy V0.99 prebeta 4 from 23. January 2008

EAC extraction logfile from 22. August 2009, 19:59

John Oswald / Bloor

Used drive : HL-DT-STBDDVDRW GGC-H20L Adapter: 1 ID: 0

Read mode : Secure
Utilize accurate stream : Yes
Defeat audio cache : Yes
Make use of C2 pointers : No

Read offset correction : 667
Overread into Lead-In and Lead-Out : No
Fill up missing offset samples with silence : Yes
Delete leading and trailing silent blocks : No
Null samples used in CRC calculations : Yes
Used interface : Native Win32 interface for Win NT & 2000
Gap handling : Appended to previous track

Used output format : User Defined Encoder
Selected bitrate : 768 kBit/s
Quality : High
Add ID3 tag : No
Command line compressor : D:\Audio\FLAC\flac.exe
Additional command line options : -6 -V -T "ARTIST=%a" -T "TITLE=%t" -T "ALBUM=%g" -T "DATE=%y" -T "TRACKNUMBER=%n" -T "GENRE=%m" -T "COMMENT=%e" %s -o %d


TOC of the extracted CD

Track | Start | Length | Start sector | End sector
––––––––––––––––––––––––––––-
1 | 0:00.00 | 8:29.05 | 0 | 38179
2 | 8:29.05 | 9:03.09 | 38180 | 78913
3 | 17:32.14 | 8:18.74 | 78914 | 116337
4 | 25:51.13 | 17:53.70 | 116338 | 196882
5 | 43:45.08 | 5:00.24 | 196883 | 219406
6 | 48:45.32 | 8:05.58 | 219407 | 255839
7 | 56:51.15 | 6:55.17 | 255840 | 286981
8 | 63:46.32 | 6:32.10 | 286982 | 316391
9 | 70:18.42 | 3:38.55 | 316392 | 332796


Track 1

Filename E:\New Rip\John Oswald - Bloor\01 - Two.wav

Pre-gap length 0:00:02.00

Peak level 59.7 %
Track quality 99.9 %
Test CRC 8F7D3ABA
Copy CRC 8F7D3ABA
Copy OK

Track 2

Filename E:\New Rip\John Oswald - Bloor\02 - Four.wav

Pre-gap length 0:00:03.57

Peak level 55.0 %
Track quality 100.0 %
Test CRC 31A35E7B
Copy CRC 31A35E7B
Copy OK

Track 3

Filename E:\New Rip\John Oswald - Bloor\03 - Five.wav

Pre-gap length 0:00:03.57

Peak level 42.2 %
Track quality 100.0 %
Test CRC 96654F4F
Copy CRC 96654F4F
Copy OK

Track 4

Filename E:\New Rip\John Oswald - Bloor\04 - Six.wav

Pre-gap length 0:00:03.57

Peak level 54.8 %
Track quality 100.0 %
Test CRC 982DD84D
Copy CRC 982DD84D
Copy OK

Track 5

Filename E:\New Rip\John Oswald - Bloor\05 - Nine.wav

Pre-gap length 0:00:03.57

Peak level 15.0 %
Track quality 100.0 %
Test CRC 38EC55CF
Copy CRC 38EC55CF
Copy OK

Track 6

Filename E:\New Rip\John Oswald - Bloor\06 - Ten.wav

Pre-gap length 0:00:03.57

Peak level 61.7 %
Track quality 100.0 %
Test CRC D40AAEEA
Copy CRC D40AAEEA
Copy OK

Track 7

Filename E:\New Rip\John Oswald - Bloor\07 - Eleven.wav

Pre-gap length 0:00:03.57

Peak level 55.7 %
Track quality 100.0 %
Test CRC 9F744E32
Copy CRC 9F744E32
Copy OK

Track 8

Filename E:\New Rip\John Oswald - Bloor\08 - Coda.wav

Pre-gap length 0:00:03.57

Peak level 57.6 %
Track quality 99.9 %
Test CRC 7FC3A38C
Copy CRC 7FC3A38C
Copy OK

Track 9

Filename E:\New Rip\John Oswald - Bloor\09 - Cadance.wav

Pre-gap length 0:00:03.57

Peak level 71.2 %
Track quality 100.0 %
Test CRC 908B6DBA
Copy CRC 908B6DBA
Copy OK

No errors occurred

End of status report


[CUETools log; Date: 05.03.2020 23:06:27; Version: 2.1.4]
[AccurateRip ID: 001c1a45-00cb936a-6e115509] disk not present in database.

Track Peak [ CRC32 ] [W/O NULL] [ LOG ]
– 71,2 [DA7AF2C1] [9625796B]
01 59,7 [8F7D3ABA] [A19F195E] CRC32
02 55,0 [31A35E7B] [91339603] CRC32
03 42,2 [96654F4F] [DC145C26] CRC32
04 54,8 [982DD84D] [65B2ED88] CRC32
05 15,0 [38EC55CF] [76D346BB] CRC32
06 61,7 [D40AAEEA] [42AAB697] CRC32
07 55,7 [9F744E32] [08312C45] CRC32
08 57,6 [7FC3A38C] [875D717D] CRC32
09 71,2 [908B6DBA] [DCA694D3] CRC32


John Oswald, David Prentice, Dominic Duval - Bloor (2001)

All thanks go to the original releaser

Dominic Duval in my Blog

Download John Oswald, David Prentice, Dominic Duval - Bloor (2001):