Tags
Language
Tags

John Williams - John Williams & Steven Spielberg: The Ultimate Collection (2017) {PROPER}

Posted By: SERTiL
John Williams - John Williams & Steven Spielberg: The Ultimate Collection (2017) {PROPER}

John Williams - John Williams & Steven Spielberg: The Ultimate Collection
EAC Rip | FLAC (tracks)+cue, log, m3u | Artwork (png, 600 dpi) | 209:27 min | 1.03 GB
Label: Sony Classical - 88985374582 | Tracks: 44 | Rls.date: 2017
Soundtrack, Classical

Over the 90-year history of sound film, there have been a handful of instances where a director and a composer have formed a longtime partnership that resulted in a series of classical scores, creating music that stands the test of time. None, however, have been as long or as fruitful as the 43-year collaboration of Steven Spielberg and John Williams. None have encompassed such a wide range of subject matter or, more significantly, have had such an enormous impact on worldwide popular culture. From the ominous shark signature of Jaws to the five-note alien greeting of Close Encounters of the Third Kind; from the heroic march of Raiders of the Lost Ark to the moving themes for Schindler’s List – the music Williams has written for more than two dozen Spielberg projects has not only served them brilliantly but entered the wider public consciousness.

Twenty-five years ago, Sony Classical began charting the Spielberg-Williams collaboration, recording two discs of their greatest hits. For this new release, John Williams & Steven Spielberg: The Ultimate Collection, these two CDs, The Spielberg/Williams Collaboration and Williams on Williams: The Classic Spielberg Scores, are included along with newly arranged and recorded material from the past two decades of their additional movie scores, The Spielberg/Williams Collaboration Part III, and a newly filmed bonus DVD documentary film, Steven Spielberg & John Williams: The Adventure Continues.

With a record fifty Academy Award nominations (more than any other composer) Williams has demonstrated, again and again, his ability to connect with audiences, both in the movie theater and in the concert hall. Seventeen of those nominations, and three of Williams’ five Oscar wins (Jaws, E.T. and Schindler’s List) have been for Spielberg films. The sheer variety of music, the depth of compositional skill on display, the powerful emotions that it evokes, makes John Williams & Steven Spielberg: The Ultimate Collection an extraordinary accomplishment. This is the work of one of America’s greatest composers, inspired by the work of one of America’s greatest filmmakers.

John Williams - John Williams & Steven Spielberg: The Ultimate Collection (2017) {PROPER}


TRACKLIST CD1: The Spielberg/Williams Collaboration
01. Raiders of the Lost Ark: The Raiders' March [0:05:11.49]
02. Always: Theme [0:05:31.00]
03. E.T.: Adventures on Earth [0:09:48.50]
04. Sugarland Express: Theme [0:03:38.00]
05. Jaws: Theme [0:02:57.00]
06. Jaws: Out to Sea; The Shark Cage Fugue [0:04:26.00]
07. Empire of the Sun: Exsultate Justi [0:04:57.00]
08. Indiana Jones and the Temple of Doom: Parade of the Slave Children [0:04:53.00]
09. E.T.: Over the Moon [0:02:12.00]
10. 1941: March [0:04:13.49]
11. Empire of the Sun: Cadillac of the Skies [0:04:59.50]
12. Indiana Jones and the Last Crusade: Scherzo for Motorcycle and Orchestra [0:02:49.49]
13. Close Encounters of the Third Kind: Excerpts [0:09:46.50]

Exact Audio Copy V1.0 beta 4 from 7. December 2014

EAC extraction logfile from 14. April 2017, 20:37

John Williams & The Boston Pops Orchestra / John Williams & Steven Spielberg: The Ultimate Collection

Used drive : ASUS SDR-08B1-U A Adapter: 1 ID: 0

Read mode : Secure
Utilize accurate stream : Yes
Defeat audio cache : Yes
Make use of C2 pointers : No

Read offset correction : 6
Overread into Lead-In and Lead-Out : No
Fill up missing offset samples with silence : Yes
Delete leading and trailing silent blocks : No
Null samples used in CRC calculations : Yes
Used interface : Native Win32 interface for Win NT & 2000
Gap handling : Appended to next track

Used output format : User Defined Encoder
Selected bitrate : 1024 kBit/s
Quality : High
Add ID3 tag : No
Command line compressor : D:\Program Files\Exact Audio Copy\FLAC\FLAC.EXE
Additional command line options : -6 -V -T "ARTIST=%artist%" -T "TITLE=%title%" -T "ALBUM=%albumtitle%" -T "DATE=%year%" -T "TRACKNUMBER=%tracknr%" -T "GENRE=%genre%" -T "COMMENT=%comment%" -T "BAND=%albuminterpret%" -T "ALBUMARTIST=%albuminterpret%" -T "COMPOSER=%composer%" %haslyrics%–tag-from-file=LYRICS="%lyricsfile%"%haslyrics% -T "DISCNUMBER=%cdnumber%" -T "TOTALDISCS=%totalcds%" -T "TOTALTRACKS=%numtracks%" %hascover%–picture="%coverfile%"%hascover% %source% -o %dest%


TOC of the extracted CD

Track | Start | Length | Start sector | End sector
––––––––––––––––––––––––––––-
1 | 0:00.00 | 5:11.37 | 0 | 23361
2 | 5:11.37 | 5:31.00 | 23362 | 48186
3 | 10:42.37 | 9:48.38 | 48187 | 92324
4 | 20:31.00 | 3:38.00 | 92325 | 108674
5 | 24:09.00 | 2:57.00 | 108675 | 121949
6 | 27:06.00 | 4:26.00 | 121950 | 141899
7 | 31:32.00 | 4:57.00 | 141900 | 164174
8 | 36:29.00 | 4:53.00 | 164175 | 186149
9 | 41:22.00 | 2:12.00 | 186150 | 196049
10 | 43:34.00 | 4:13.37 | 196050 | 215061
11 | 47:47.37 | 4:59.38 | 215062 | 237524
12 | 52:47.00 | 2:49.37 | 237525 | 250236
13 | 55:36.37 | 9:46.38 | 250237 | 294224


Track 1

Filename E:\barca008\John Williams & Steven Spielberg - The Ultimate Collection\CD1 The Spielberg-Williams Collaboration\01 - Raiders of the Lost Ark- The Raiders' March.wav

Pre-gap length 0:00:02.00

Peak level 97.7 %
Extraction speed 1.2 X
Track quality 100.0 %
Test CRC 60FEDEC4
Copy CRC 60FEDEC4
Accurately ripped (confidence 3) [8D6B0284] (AR v2)
Copy OK

Track 2

Filename E:\barca008\John Williams & Steven Spielberg - The Ultimate Collection\CD1 The Spielberg-Williams Collaboration\02 - Always- Theme.wav

Pre-gap length 0:00:00.82

Peak level 34.4 %
Extraction speed 1.4 X
Track quality 100.0 %
Test CRC 2DD5BB6E
Copy CRC 2DD5BB6E
Accurately ripped (confidence 3) [0E4CAFC7] (AR v2)
Copy OK

Track 3

Filename E:\barca008\John Williams & Steven Spielberg - The Ultimate Collection\CD1 The Spielberg-Williams Collaboration\03 - E.T.- Adventures on Earth.wav

Peak level 87.2 %
Extraction speed 1.7 X
Track quality 100.0 %
Test CRC 44832A99
Copy CRC 44832A99
Accurately ripped (confidence 3) [7D72D181] (AR v2)
Copy OK

Track 4

Filename E:\barca008\John Williams & Steven Spielberg - The Ultimate Collection\CD1 The Spielberg-Williams Collaboration\04 - Sugarland Express- Theme.wav

Pre-gap length 0:00:01.10

Peak level 60.8 %
Extraction speed 1.7 X
Track quality 100.0 %
Test CRC 942997A0
Copy CRC 942997A0
Accurately ripped (confidence 3) [08F8C403] (AR v2)
Copy OK

Track 5

Filename E:\barca008\John Williams & Steven Spielberg - The Ultimate Collection\CD1 The Spielberg-Williams Collaboration\05 - Jaws- Theme.wav

Pre-gap length 0:00:01.84

Peak level 97.7 %
Extraction speed 1.8 X
Track quality 100.0 %
Test CRC E8BE5F42
Copy CRC E8BE5F42
Accurately ripped (confidence 3) [C85EAF37] (AR v2)
Copy OK

Track 6

Filename E:\barca008\John Williams & Steven Spielberg - The Ultimate Collection\CD1 The Spielberg-Williams Collaboration\06 - Jaws- Out to Sea; The Shark Cage Fugue.wav

Peak level 77.7 %
Extraction speed 1.9 X
Track quality 100.0 %
Test CRC 1A88C72E
Copy CRC 1A88C72E
Accurately ripped (confidence 3) [E72CC8A3] (AR v2)
Copy OK

Track 7

Filename E:\barca008\John Williams & Steven Spielberg - The Ultimate Collection\CD1 The Spielberg-Williams Collaboration\07 - Empire of the Sun- Exsultate Justi.wav

Pre-gap length 0:00:02.66

Peak level 71.6 %
Extraction speed 2.1 X
Track quality 100.0 %
Test CRC F3585159
Copy CRC F3585159
Accurately ripped (confidence 3) [F5E44AFA] (AR v2)
Copy OK

Track 8

Filename E:\barca008\John Williams & Steven Spielberg - The Ultimate Collection\CD1 The Spielberg-Williams Collaboration\08 - Indiana Jones and the Temple of Doom- Parade of the Slave Children.wav

Peak level 77.7 %
Extraction speed 2.1 X
Track quality 100.0 %
Test CRC AEBCF2F8
Copy CRC AEBCF2F8
Accurately ripped (confidence 3) [5B3D8C61] (AR v2)
Copy OK

Track 9

Filename E:\barca008\John Williams & Steven Spielberg - The Ultimate Collection\CD1 The Spielberg-Williams Collaboration\09 - E.T.- Over the Moon.wav

Peak level 36.5 %
Extraction speed 1.6 X
Track quality 99.9 %
Test CRC E7428F3D
Copy CRC E7428F3D
Accurately ripped (confidence 3) [413E7D07] (AR v2)
Copy OK

Track 10

Filename E:\barca008\John Williams & Steven Spielberg - The Ultimate Collection\CD1 The Spielberg-Williams Collaboration\10 - 1941- March.wav

Pre-gap length 0:00:00.53

Peak level 96.5 %
Extraction speed 2.3 X
Track quality 100.0 %
Test CRC C3724A56
Copy CRC C3724A56
Accurately ripped (confidence 3) [F8D6A2F8] (AR v2)
Copy OK

Track 11

Filename E:\barca008\John Williams & Steven Spielberg - The Ultimate Collection\CD1 The Spielberg-Williams Collaboration\11 - Empire of the Sun- Cadillac of the Skies.wav

Pre-gap length 0:00:01.49

Peak level 76.2 %
Extraction speed 2.4 X
Track quality 100.0 %
Test CRC 1BD9CA90
Copy CRC 1BD9CA90
Accurately ripped (confidence 3) [AE9DB139] (AR v2)
Copy OK

Track 12

Filename E:\barca008\John Williams & Steven Spielberg - The Ultimate Collection\CD1 The Spielberg-Williams Collaboration\12 - Indiana Jones and the Last Crusade- Scherzo for Motorcycle and Orchestra.wav

Pre-gap length 0:00:00.37

Peak level 97.0 %
Extraction speed 1.9 X
Track quality 99.9 %
Test CRC 45D6CC0D
Copy CRC 45D6CC0D
Accurately ripped (confidence 3) [87B85D9D] (AR v2)
Copy OK

Track 13

Filename E:\barca008\John Williams & Steven Spielberg - The Ultimate Collection\CD1 The Spielberg-Williams Collaboration\13 - Close Encounters of the Third Kind- Excerpts.wav

Pre-gap length 0:00:01.53

Peak level 97.7 %
Extraction speed 2.7 X
Track quality 100.0 %
Test CRC 4A280BE7
Copy CRC 4A280BE7
Accurately ripped (confidence 3) [FB99A22F] (AR v2)
Copy OK


All tracks accurately ripped

No errors occurred

End of status report

–– CUETools DB Plugin V2.1.4

[CTDB TOCID: 7qkriJdSw0B3MSuJT6zwacPjwFs-] found
Submit result: 7qkriJdSw0B3MSuJT6zwacPjwFs- has been confirmed
Track | CTDB Status
1 | (13/13) Accurately ripped
2 | (13/13) Accurately ripped
3 | (13/13) Accurately ripped
4 | (13/13) Accurately ripped
5 | (13/13) Accurately ripped
6 | (13/13) Accurately ripped
7 | (13/13) Accurately ripped
8 | (13/13) Accurately ripped
9 | (13/13) Accurately ripped
10 | (13/13) Accurately ripped
11 | (13/13) Accurately ripped
12 | (13/13) Accurately ripped
13 | (13/13) Accurately ripped


==== Log checksum 31D9E68D5D4DB50DD9FF23609280D135F1B0061012FCB175A63DC901B02072E5 ====


John Williams - John Williams & Steven Spielberg: The Ultimate Collection (2017) {PROPER}


TRACKLIST CD2: Williams On Williams-The Classic Spielberg Scores
01. E.T.: Flying [0:03:39.66]
02. Jurassic Park: Theme [0:05:32.56]
03. Schindler's List: Remembrances [0:06:27.77]
04. Hook: Flight to Neverland [0:04:43.86]
05. 1941: The Battle Of Hollywood [0:05:02.46]
06. Hook: Smee's Plan [0:03:36.02]
07. Jaws: The Barrel Chase [0:05:36.73]
08. Jurassic Park: My Friend, the Brachiosaurus [0:04:41.84]
09. Empire of the Sun: Jim's New Life [0:03:45.26]
10. Close Encounters of the Third Kind: The Dialogue [0:03:31.36]
11. Hook: The Lost Boys Ballet [0:04:00.97]
12. Schindler's List: Theme [0:03:57.26]
13. Raiders of the Lost Ark: The Basket Chase [0:04:18.49]
14. Hook: The Face of Pan [0:04:25.46]
15. Hook: The Banquet Scene [0:06:08.40]

Exact Audio Copy V1.0 beta 4 from 7. December 2014

EAC extraction logfile from 14. April 2017, 21:56

John Williams & The Boston Pops Orchestra / John Williams & Steven Spielberg: The Ultimate Collection

Used drive : ASUS SDR-08B1-U A Adapter: 1 ID: 0

Read mode : Secure
Utilize accurate stream : Yes
Defeat audio cache : Yes
Make use of C2 pointers : No

Read offset correction : 6
Overread into Lead-In and Lead-Out : No
Fill up missing offset samples with silence : Yes
Delete leading and trailing silent blocks : No
Null samples used in CRC calculations : Yes
Used interface : Native Win32 interface for Win NT & 2000
Gap handling : Appended to next track

Used output format : User Defined Encoder
Selected bitrate : 1024 kBit/s
Quality : High
Add ID3 tag : No
Command line compressor : D:\Program Files\Exact Audio Copy\FLAC\FLAC.EXE
Additional command line options : -6 -V -T "ARTIST=%artist%" -T "TITLE=%title%" -T "ALBUM=%albumtitle%" -T "DATE=%year%" -T "TRACKNUMBER=%tracknr%" -T "GENRE=%genre%" -T "COMMENT=%comment%" -T "BAND=%albuminterpret%" -T "ALBUMARTIST=%albuminterpret%" -T "COMPOSER=%composer%" %haslyrics%–tag-from-file=LYRICS="%lyricsfile%"%haslyrics% -T "DISCNUMBER=%cdnumber%" -T "TOTALDISCS=%totalcds%" -T "TOTALTRACKS=%numtracks%" %hascover%–picture="%coverfile%"%hascover% %source% -o %dest%


TOC of the extracted CD

Track | Start | Length | Start sector | End sector
––––––––––––––––––––––––––––-
1 | 0:00.00 | 3:39.50 | 0 | 16474
2 | 3:39.50 | 5:32.42 | 16475 | 41416
3 | 9:12.17 | 6:27.58 | 41417 | 70499
4 | 15:40.00 | 4:43.65 | 70500 | 91789
5 | 20:23.65 | 5:02.35 | 91790 | 114474
6 | 25:26.25 | 3:36.02 | 114475 | 130676
7 | 29:02.27 | 5:36.55 | 130677 | 155931
8 | 34:39.07 | 4:41.63 | 155932 | 177069
9 | 39:20.70 | 3:45.20 | 177070 | 193964
10 | 43:06.15 | 3:31.27 | 193965 | 209816
11 | 46:37.42 | 4:00.73 | 209817 | 227889
12 | 50:38.40 | 3:57.20 | 227890 | 245684
13 | 54:35.60 | 4:18.37 | 245685 | 265071
14 | 58:54.22 | 4:25.35 | 265072 | 284981
15 | 63:19.57 | 6:08.30 | 284982 | 312611


Track 1

Filename E:\barca008\John Williams & Steven Spielberg - The Ultimate Collection\CD2 Williams On Williams The Classic Spielberg Scores\01 - E.T.- Flying.wav

Pre-gap length 0:00:02.00

Peak level 88.0 %
Extraction speed 1.2 X
Track quality 100.0 %
Test CRC 9D399816
Copy CRC 9D399816
Accurately ripped (confidence 3) [26768C6A] (AR v2)
Copy OK

Track 2

Filename E:\barca008\John Williams & Steven Spielberg - The Ultimate Collection\CD2 Williams On Williams The Classic Spielberg Scores\02 - Jurassic Park- Theme.wav

Pre-gap length 0:00:02.17

Peak level 100.0 %
Extraction speed 1.5 X
Track quality 100.0 %
Test CRC AB388703
Copy CRC AB388703
Accurately ripped (confidence 3) [D6C092A3] (AR v2)
Copy OK

Track 3

Filename E:\barca008\John Williams & Steven Spielberg - The Ultimate Collection\CD2 Williams On Williams The Classic Spielberg Scores\03 - Schindler's List- Remembrances.wav

Pre-gap length 0:00:03.02

Peak level 20.9 %
Extraction speed 1.7 X
Track quality 100.0 %
Test CRC 406E9CC2
Copy CRC 406E9CC2
Accurately ripped (confidence 3) [1E46B092] (AR v2)
Copy OK

Track 4

Filename E:\barca008\John Williams & Steven Spielberg - The Ultimate Collection\CD2 Williams On Williams The Classic Spielberg Scores\04 - Hook- Flight to Neverland.wav

Pre-gap length 0:00:03.66

Peak level 83.8 %
Extraction speed 1.8 X
Track quality 100.0 %
Test CRC EAD4F462
Copy CRC EAD4F462
Accurately ripped (confidence 3) [0DAC98C0] (AR v2)
Copy OK

Track 5

Filename E:\barca008\John Williams & Steven Spielberg - The Ultimate Collection\CD2 Williams On Williams The Classic Spielberg Scores\05 - 1941- The Battle Of Hollywood.wav

Pre-gap length 0:00:01.93

Peak level 98.3 %
Extraction speed 1.9 X
Track quality 100.0 %
Test CRC AC3794D2
Copy CRC AC3794D2
Accurately ripped (confidence 3) [A8486D78] (AR v2)
Copy OK

Track 6

Filename E:\barca008\John Williams & Steven Spielberg - The Ultimate Collection\CD2 Williams On Williams The Classic Spielberg Scores\06 - Hook- Smee's Plan.wav

Pre-gap length 0:00:03.10

Peak level 85.8 %
Extraction speed 1.9 X
Track quality 100.0 %
Test CRC 6EA5FA75
Copy CRC 6EA5FA75
Accurately ripped (confidence 3) [109698E2] (AR v2)
Copy OK

Track 7

Filename E:\barca008\John Williams & Steven Spielberg - The Ultimate Collection\CD2 Williams On Williams The Classic Spielberg Scores\07 - Jaws- The Barrel Chase.wav

Pre-gap length 0:00:03.46

Peak level 92.5 %
Extraction speed 2.1 X
Track quality 100.0 %
Test CRC C7FE1338
Copy CRC C7FE1338
Accurately ripped (confidence 3) [49F104F0] (AR v2)
Copy OK

Track 8

Filename E:\barca008\John Williams & Steven Spielberg - The Ultimate Collection\CD2 Williams On Williams The Classic Spielberg Scores\08 - Jurassic Park- My Friend, the Brachiosaurus.wav

Pre-gap length 0:00:03.09

Peak level 27.5 %
Extraction speed 2.2 X
Track quality 100.0 %
Test CRC 09AD3694
Copy CRC 09AD3694
Accurately ripped (confidence 3) [0B2F6F0D] (AR v2)
Copy OK

Track 9

Filename E:\barca008\John Williams & Steven Spielberg - The Ultimate Collection\CD2 Williams On Williams The Classic Spielberg Scores\09 - Empire of the Sun- Jim's New Life.wav

Pre-gap length 0:00:03.20

Peak level 65.9 %
Extraction speed 2.2 X
Track quality 100.0 %
Test CRC 7386D591
Copy CRC 7386D591
Accurately ripped (confidence 3) [B9759CFD] (AR v2)
Copy OK

Track 10

Filename E:\barca008\John Williams & Steven Spielberg - The Ultimate Collection\CD2 Williams On Williams The Classic Spielberg Scores\10 - Close Encounters of the Third Kind- The Dialogue.wav

Pre-gap length 0:00:02.46

Peak level 79.9 %
Extraction speed 2.0 X
Track quality 99.9 %
Test CRC D07EF659
Copy CRC D07EF659
Accurately ripped (confidence 3) [577EAA5F] (AR v2)
Copy OK

Track 11

Filename E:\barca008\John Williams & Steven Spielberg - The Ultimate Collection\CD2 Williams On Williams The Classic Spielberg Scores\11 - Hook- The Lost Boys Ballet.wav

Pre-gap length 0:00:03.02

Peak level 92.7 %
Extraction speed 2.4 X
Track quality 100.0 %
Test CRC 958B60FD
Copy CRC 958B60FD
Accurately ripped (confidence 3) [D8F9CA87] (AR v2)
Copy OK

Track 12

Filename E:\barca008\John Williams & Steven Spielberg - The Ultimate Collection\CD2 Williams On Williams The Classic Spielberg Scores\12 - Schindler's List- Theme.wav

Pre-gap length 0:00:02.26

Peak level 15.1 %
Extraction speed 2.4 X
Track quality 100.0 %
Test CRC 7EFFE168
Copy CRC 7EFFE168
Accurately ripped (confidence 3) [3AB194B6] (AR v2)
Copy OK

Track 13

Filename E:\barca008\John Williams & Steven Spielberg - The Ultimate Collection\CD2 Williams On Williams The Classic Spielberg Scores\13 - Raiders of the Lost Ark- The Basket Chase.wav

Pre-gap length 0:00:02.53

Peak level 83.3 %
Extraction speed 2.3 X
Track quality 99.9 %
Test CRC 9CF822B0
Copy CRC 9CF822B0
Accurately ripped (confidence 3) [AE4F3E2C] (AR v2)
Copy OK

Track 14

Filename E:\barca008\John Williams & Steven Spielberg - The Ultimate Collection\CD2 Williams On Williams The Classic Spielberg Scores\14 - Hook- The Face of Pan.wav

Pre-gap length 0:00:01.76

Peak level 30.1 %
Extraction speed 2.6 X
Track quality 100.0 %
Test CRC A3673D54
Copy CRC A3673D54
Accurately ripped (confidence 3) [52A7F568] (AR v2)
Copy OK

Track 15

Filename E:\barca008\John Williams & Steven Spielberg - The Ultimate Collection\CD2 Williams On Williams The Classic Spielberg Scores\15 - Hook- The Banquet Scene.wav

Pre-gap length 0:00:02.36

Peak level 100.0 %
Extraction speed 2.8 X
Track quality 100.0 %
Test CRC 9B7FC70C
Copy CRC 9B7FC70C
Accurately ripped (confidence 3) [A8C36003] (AR v2)
Copy OK


All tracks accurately ripped

No errors occurred

End of status report

–– CUETools DB Plugin V2.1.4

[CTDB TOCID: Zfch5KjnGakiRuvyZa0Rm57Ya00-] found
Submit result: Zfch5KjnGakiRuvyZa0Rm57Ya00- has been confirmed
Track | CTDB Status
1 | (13/13) Accurately ripped
2 | (13/13) Accurately ripped
3 | (13/13) Accurately ripped
4 | (13/13) Accurately ripped
5 | (13/13) Accurately ripped
6 | (13/13) Accurately ripped
7 | (13/13) Accurately ripped
8 | (13/13) Accurately ripped
9 | (13/13) Accurately ripped
10 | (13/13) Accurately ripped
11 | (13/13) Accurately ripped
12 | (13/13) Accurately ripped
13 | (13/13) Accurately ripped
14 | (13/13) Accurately ripped
15 | (13/13) Accurately ripped


==== Log checksum AF56132D3F5B470E9DC7FC18E07DBA329698D4FC3BCE9FB5B16C32C0A76AB0F1 ====


John Williams - John Williams & Steven Spielberg: The Ultimate Collection (2017) {PROPER}


TRACKLIST CD3: The Spielberg/Williams Collaboration Part III
01. Indiana Jones and The Kingdom of the Crystal Skull: The Adventures of Mutt [0:03:37.21]
02. Amistad: Dry Your Tears, Afrika [0:03:42.80]
03. The BFG: The BFG [0:07:31.62]
04. Lincoln: With Malice Toward None [0:04:44.29]
05. The Adventures of Tintin: The Duel [0:03:13.37]
06. Minority Report: A New Beginning [0:03:37.00]
07. Catch Me If You Can: Movement 1-Closing In [0:03:03.04]
08. Catch Me If You Can: Movement 2-Reflections [0:07:38.24]
09. Catch Me If You Can: Movement 3-Joy Ride [0:05:34.68]
10. Raiders of the Lost Ark: Marion's Theme [0:04:01.22]
11. Saving Private Ryan: Hymn to the Fallen [0:04:22.29]
12. War Horse: Dartmoor, 1912 [0:06:56.04]
13. The Terminal: Viktor's Tale [0:04:35.08]
14. Munich: Prayer for Peace [0:03:34.52]
15. The Unfinished Journey: Immigration and Building [0:05:24.36]
16. Lincoln: With Malice Toward None (Alternate Version) [0:03:20.81]

Exact Audio Copy V1.0 beta 4 from 7. December 2014

EAC extraction logfile from 14. April 2017, 23:33

John Williams & Recording Arts Orchestra of Los Angeles / John Williams & Steven Spielberg: The Ultimate Collection

Used drive : ASUS SDR-08B1-U A Adapter: 1 ID: 0

Read mode : Secure
Utilize accurate stream : Yes
Defeat audio cache : Yes
Make use of C2 pointers : No

Read offset correction : 6
Overread into Lead-In and Lead-Out : No
Fill up missing offset samples with silence : Yes
Delete leading and trailing silent blocks : No
Null samples used in CRC calculations : Yes
Used interface : Native Win32 interface for Win NT & 2000
Gap handling : Appended to next track

Used output format : User Defined Encoder
Selected bitrate : 1024 kBit/s
Quality : High
Add ID3 tag : No
Command line compressor : D:\Program Files\Exact Audio Copy\FLAC\FLAC.EXE
Additional command line options : -6 -V -T "ARTIST=%artist%" -T "TITLE=%title%" -T "ALBUM=%albumtitle%" -T "DATE=%year%" -T "TRACKNUMBER=%tracknr%" -T "GENRE=%genre%" -T "COMMENT=%comment%" -T "BAND=%albuminterpret%" -T "ALBUMARTIST=%albuminterpret%" -T "COMPOSER=%composer%" %haslyrics%–tag-from-file=LYRICS="%lyricsfile%"%haslyrics% -T "DISCNUMBER=%cdnumber%" -T "TOTALDISCS=%totalcds%" -T "TOTALTRACKS=%numtracks%" %hascover%–picture="%coverfile%"%hascover% %source% -o %dest%


TOC of the extracted CD

Track | Start | Length | Start sector | End sector
––––––––––––––––––––––––––––-
1 | 0:00.00 | 3:37.16 | 0 | 16290
2 | 3:37.16 | 3:42.60 | 16291 | 33000
3 | 7:20.01 | 7:31.47 | 33001 | 66872
4 | 14:51.48 | 4:44.22 | 66873 | 88194
5 | 19:35.70 | 3:13.28 | 88195 | 102697
6 | 22:49.23 | 3:37.00 | 102698 | 118972
7 | 26:26.23 | 3:03.03 | 118973 | 132700
8 | 29:29.26 | 7:38.18 | 132701 | 167068
9 | 37:07.44 | 5:34.51 | 167069 | 192169
10 | 42:42.20 | 4:01.17 | 192170 | 210261
11 | 46:43.37 | 4:22.22 | 210262 | 229933
12 | 51:05.59 | 6:56.03 | 229934 | 261136
13 | 58:01.62 | 4:35.06 | 261137 | 281767
14 | 62:36.68 | 3:34.39 | 281768 | 297856
15 | 66:11.32 | 5:24.27 | 297857 | 322183
16 | 71:35.59 | 3:20.61 | 322184 | 337244


Track 1

Filename E:\barca008\John Williams & Steven Spielberg - The Ultimate Collection\CD3 The Spielberg-Williams Collaboration Part III\01 - Indiana Jones and The Kingdom of the Crystal Skull- The Adventures of Mutt.wav

Pre-gap length 0:00:02.00

Peak level 94.5 %
Extraction speed 1.2 X
Track quality 100.0 %
Test CRC EDDFBA4B
Copy CRC EDDFBA4B
Accurately ripped (confidence 3) [4193EAD2] (AR v2)
Copy OK

Track 2

Filename E:\barca008\John Williams & Steven Spielberg - The Ultimate Collection\CD3 The Spielberg-Williams Collaboration Part III\02 - Amistad- Dry Your Tears, Afrika.wav

Pre-gap length 0:00:02.50

Peak level 99.0 %
Extraction speed 1.4 X
Track quality 100.0 %
Test CRC 0ED9D12E
Copy CRC 0ED9D12E
Accurately ripped (confidence 3) [539AB823] (AR v2)
Copy OK

Track 3

Filename E:\barca008\John Williams & Steven Spielberg - The Ultimate Collection\CD3 The Spielberg-Williams Collaboration Part III\03 - The BFG- The BFG.wav

Pre-gap length 0:00:03.00

Peak level 94.4 %
Extraction speed 1.7 X
Track quality 100.0 %
Test CRC 1123ACC7
Copy CRC 1123ACC7
Accurately ripped (confidence 3) [D927FFE7] (AR v2)
Copy OK

Track 4

Filename E:\barca008\John Williams & Steven Spielberg - The Ultimate Collection\CD3 The Spielberg-Williams Collaboration Part III\04 - Lincoln- With Malice Toward None.wav

Pre-gap length 0:00:03.02

Peak level 91.4 %
Extraction speed 1.8 X
Track quality 100.0 %
Test CRC B95D36CD
Copy CRC B95D36CD
Accurately ripped (confidence 3) [8D9F5E74] (AR v2)
Copy OK

Track 5

Filename E:\barca008\John Williams & Steven Spielberg - The Ultimate Collection\CD3 The Spielberg-Williams Collaboration Part III\05 - The Adventures of Tintin- The Duel.wav

Pre-gap length 0:00:01.77

Peak level 94.5 %
Extraction speed 1.5 X
Track quality 99.9 %
Test CRC A96A20E0
Copy CRC A96A20E0
Accurately ripped (confidence 3) [10894239] (AR v2)
Copy OK

Track 6

Filename E:\barca008\John Williams & Steven Spielberg - The Ultimate Collection\CD3 The Spielberg-Williams Collaboration Part III\06 - Minority Report- A New Beginning.wav

Pre-gap length 0:00:02.93

Peak level 70.6 %
Extraction speed 1.9 X
Track quality 100.0 %
Test CRC BC3BBFEC
Copy CRC BC3BBFEC
Accurately ripped (confidence 3) [C3C242FC] (AR v2)
Copy OK

Track 7

Filename E:\barca008\John Williams & Steven Spielberg - The Ultimate Collection\CD3 The Spielberg-Williams Collaboration Part III\07 - Catch Me If You Can- Movement 1-Closing In.wav

Pre-gap length 0:00:00.40

Peak level 93.9 %
Extraction speed 1.9 X
Track quality 100.0 %
Test CRC 02968F29
Copy CRC 02968F29
Accurately ripped (confidence 3) [125DDBC8] (AR v2)
Copy OK

Track 8

Filename E:\barca008\John Williams & Steven Spielberg - The Ultimate Collection\CD3 The Spielberg-Williams Collaboration Part III\08 - Catch Me If You Can- Movement 2-Reflections.wav

Pre-gap length 0:00:02.80

Peak level 68.8 %
Extraction speed 2.2 X
Track quality 100.0 %
Test CRC D66F40F0
Copy CRC D66F40F0
Accurately ripped (confidence 3) [7AE058FE] (AR v2)
Copy OK

Track 9

Filename E:\barca008\John Williams & Steven Spielberg - The Ultimate Collection\CD3 The Spielberg-Williams Collaboration Part III\09 - Catch Me If You Can- Movement 3-Joy Ride.wav

Peak level 95.7 %
Extraction speed 2.1 X
Track quality 99.9 %
Test CRC 4CE42F07
Copy CRC 4CE42F07
Accurately ripped (confidence 3) [3F0D9526] (AR v2)
Copy OK

Track 10

Filename E:\barca008\John Williams & Steven Spielberg - The Ultimate Collection\CD3 The Spielberg-Williams Collaboration Part III\10 - Raiders of the Lost Ark- Marion's Theme.wav

Pre-gap length 0:00:02.98

Peak level 100.0 %
Extraction speed 2.3 X
Track quality 100.0 %
Test CRC 77DEA1A1
Copy CRC 77DEA1A1
Accurately ripped (confidence 3) [090CD548] (AR v2)
Copy OK

Track 11

Filename E:\barca008\John Williams & Steven Spielberg - The Ultimate Collection\CD3 The Spielberg-Williams Collaboration Part III\11 - Saving Private Ryan- Hymn to the Fallen.wav

Pre-gap length 0:00:03.00

Peak level 94.4 %
Extraction speed 2.4 X
Track quality 100.0 %
Test CRC 54D63B97
Copy CRC 54D63B97
Accurately ripped (confidence 3) [67ADF94A] (AR v2)
Copy OK

Track 12

Filename E:\barca008\John Williams & Steven Spielberg - The Ultimate Collection\CD3 The Spielberg-Williams Collaboration Part III\12 - War Horse- Dartmoor, 1912.wav

Pre-gap length 0:00:02.84

Peak level 94.4 %
Extraction speed 2.6 X
Track quality 100.0 %
Test CRC 193502EE
Copy CRC 193502EE
Accurately ripped (confidence 3) [1A104C6F] (AR v2)
Copy OK

Track 13

Filename E:\barca008\John Williams & Steven Spielberg - The Ultimate Collection\CD3 The Spielberg-Williams Collaboration Part III\13 - The Terminal- Viktor's Tale.wav

Pre-gap length 0:00:01.93

Peak level 94.8 %
Extraction speed 2.6 X
Track quality 100.0 %
Test CRC BA0F1FBD
Copy CRC BA0F1FBD
Accurately ripped (confidence 3) [8BC30851] (AR v2)
Copy OK

Track 14

Filename E:\barca008\John Williams & Steven Spielberg - The Ultimate Collection\CD3 The Spielberg-Williams Collaboration Part III\14 - Munich- Prayer for Peace.wav

Pre-gap length 0:00:02.66

Peak level 86.7 %
Extraction speed 2.6 X
Track quality 100.0 %
Test CRC 28152799
Copy CRC 28152799
Accurately ripped (confidence 3) [F3859914] (AR v2)
Copy OK

Track 15

Filename E:\barca008\John Williams & Steven Spielberg - The Ultimate Collection\CD3 The Spielberg-Williams Collaboration Part III\15 - The Unfinished Journey- Immigration and Building.wav

Pre-gap length 0:00:01.80

Peak level 100.0 %
Extraction speed 2.8 X
Track quality 100.0 %
Test CRC 7B5B249A
Copy CRC 7B5B249A
Accurately ripped (confidence 3) [4427AA7F] (AR v2)
Copy OK

Track 16

Filename E:\barca008\John Williams & Steven Spielberg - The Ultimate Collection\CD3 The Spielberg-Williams Collaboration Part III\16 - Lincoln- With Malice Toward None (Alternate Version).wav

Pre-gap length 0:00:02.76

Peak level 92.4 %
Extraction speed 2.7 X
Track quality 100.0 %
Test CRC 9B3B6819
Copy CRC 9B3B6819
Accurately ripped (confidence 3) [A893EDFD] (AR v2)
Copy OK


All tracks accurately ripped

No errors occurred

End of status report

–– CUETools DB Plugin V2.1.4

[CTDB TOCID: JgAot9UOEtyqyRP1pVKOZgaBA9A-] found
Submit result: JgAot9UOEtyqyRP1pVKOZgaBA9A- has been confirmed
Track | CTDB Status
1 | (15/15) Accurately ripped
2 | (15/15) Accurately ripped
3 | (15/15) Accurately ripped
4 | (15/15) Accurately ripped
5 | (15/15) Accurately ripped
6 | (15/15) Accurately ripped
7 | (15/15) Accurately ripped
8 | (15/15) Accurately ripped
9 | (15/15) Accurately ripped
10 | (15/15) Accurately ripped
11 | (15/15) Accurately ripped
12 | (15/15) Accurately ripped
13 | (15/15) Accurately ripped
14 | (15/15) Accurately ripped
15 | (15/15) Accurately ripped
16 | (15/15) Accurately ripped


==== Log checksum 520563720263C3B0CC3F7A155BC09BC24B903D1F22D2145BB6C6548866FE7B3F ====


John Williams - John Williams & Steven Spielberg: The Ultimate Collection (2017) {PROPER}


Thanks to the Original customer.