Tags
Language
Tags

John Nelson, Orchestre Philharmonique de Strasbourg - Berlioz: La Damnation de Faust (2019)

Posted By: ArlegZ
John Nelson, Orchestre Philharmonique de Strasbourg - Berlioz: La Damnation de Faust (2019)

John Nelson, Orchestre Philharmonique de Strasbourg - Berlioz: La Damnation de Faust (2019)
EAC | FLAC | Image (Cue & Log) ~ 590 Mb | Total time: 58:46+68:34 | Scans included
Classical | Label: Erato | # 9029541735 | Recorded: 2019

"The most dramatic piece that Berlioz ever wrote," is how conductor John Nelson describes La Damnation de Faust. The composer designated this thrilling hybrid of oratorio and opera a 'légende dramatique'. Following in the triumphant footsteps of Les Troyens, also recorded at the Auditorium Erasme in Strasbourg, this performance reunites Nelson and the Orchestre Philharmonique de Strasbourg with singers Michael Spyres, Joyce DiDonato and Nicolas Courjal. This recording was made in the Auditorium Erasme in Strasbourg in April 2019, two years after Nelson, the Orchestre Philharmonique de Strasbourg and a superb cast including Joyce DiDonato, Michael Spyres and Nicolas Courjal brought Berlioz's Les Troyens to life in the same venue. The associated Erato recording of the huge two-part opera has gone on to win unalloyed praise and multiple major prizes. As the New York Times wrote: "Berlioz's epic opera has rarely been given such luxury treatment as in this magnificent live recording from France."

Performer:
Marguerite - Joyce DiDonato, mezzo-soprano
Faust - Michael Spyres, tenor
Méphistophélès - Nicolas Courjal, bass
Brander - Alexandre Duhamel, baritone
Coro Gulbenkian
Les Petits Chanteurs de Strasbourg
Maîtrise de l'Opéra national du Rhin
Orchestre Philharmonique de Strasbourg
John Nelson, conductor

Track List:
La Damnation de Faust, Op. 24, H. 111
CD1:
Première Partie
01. Scène 1. Le vieil hiver a fait place au printemps (Faust)
02. Scène 2. Les bergers laissent leurs troupeaux (Chœur, Faust)
03. Scène 3. Mais d'un éclat guerrier (Faust)
04. Marche hongroise
Deuxième Partie
05. Scène 4. Sans regrets j'ai quitté les riantes campagnes (Faust)
06. Christ vient de ressusciter ! (Chœur, Faust)
07. Hélas ! doux chants du ciel (Faust)
08. Scène 5. Ô pure émotion ! (Méphistophélès, Faust)
09. Scène 6. À boire encor ! … Oh ! qu'il fait bon (Chœur, Méphistophélès, Brander)
10. Certain rat, dans une cuisine (Brander, Chœur, Méphistophélès)
11. Amen (Brander, Chœur)
12. Vrai Dieu, messieurs (Méphistophélès, Chœur)
13. Une puce gentille (Méphistophélès, Chœur)
14. Assez ! fuyons ces lieux (Faust, Méphistophélès)
15. Scène 7. Voici des roses (Méphistophélès)
16. Dors, dors, heureux Faust (Chœur, Méphistophélès, Faust)
17. Ballet des sylphes
18. Margarita ! (Faust, Méphistophélès)
19. Scène 8. Villes entourées (Chœur)
20. Jam nox stellata velamina pandit (Chœur)
21. Villes entourées … Jam nox stellata (Chorus, Faust, Méphistophélès)
CD2:
Troisième Partie
01. Scène 9. Tambours et trompettes sonnant la retraite
02. Merci, doux crépuscule ! (Faust)
03. Scène 10. Je l'entends ! (Méphistophélès, Faust)
04. Scène 11. Que l'air est étouffant ! (Marguerite)
05. Autrefois un roi de Thulé (Marguerite)
06. Scène 12. Esprits des flammes inconstantes (Méphistophélès)
07. Menuet des follets
08. Maintenant, chantons à cette belle (Méphistophélès)
09. Devant la maison (Méphistophélès, Chœur)
10. Scène 13. Grand Dieu ! (Marguerite)
11. Ange adoré (Faust, Marguerite)
12. Scène 14 Allons, il est trop tard ! (Méphistophélès, Marguerite, Faust, Chœur)
13. Je connais donc enfin (Faust, Méphistophélès, Marguerite, Chœur)
Quatrième Partie
14. Scène 15. D'amour l'ardente flamme (Marguerite)
15. Au son des trompettes (Chœur, Marguerite)
16. Scène 16. Nature immense (Faust)
17. Scène 17. À la voûte azurée (Méphistophélès, Faust)
18. Scène 18. Dans mon cœur retentit sa voix désespérée (Faust, Chœur, Méphistophélès)
19. Scène 19. Ha ! Irimiru Karabrao ! (Chœur, Méphistophélès)
20. Tradioun Marexil fir trudinxé burrudixé ! (Chœur)
21. Epilogue: Alors l'enfer se tut (Chœur)
22. Laus ! Laus ! Hosanna ! Hosanna ! (Chœur, Une voix)
23. Remonte au ciel, âme naïve (Chœur)
24. Viens, les vierges divines (Chœur, Une voix)


Exact Audio Copy V1.6 from 23. October 2020

EAC extraction logfile from 24. April 2021, 11:51

Hector Berlioz / La Damnation De Faust – J. Nelson

Used drive : HL-DT-STDVDRAM GH24NSD5 Adapter: 1 ID: 0

Read mode : Secure
Utilize accurate stream : Yes
Defeat audio cache : Yes
Make use of C2 pointers : No

Read offset correction : 6
Overread into Lead-In and Lead-Out : No
Fill up missing offset samples with silence : Yes
Delete leading and trailing silent blocks : No
Null samples used in CRC calculations : Yes
Used interface : Native Win32 interface for Win NT & 2000

Used output format : User Defined Encoder
Selected bitrate : 1024 kBit/s
Quality : High
Add ID3 tag : No
Command line compressor : C:\Program Files (x86)\Exact Audio Copy\FLAC\FLAC.EXE
Additional command line options : -6 -V -T "ARTIST=%artist%" -T "TITLE=%title%" -T "ALBUM=%albumtitle%" -T "DATE=%year%" -T "TRACKNUMBER=%tracknr%" -T "GENRE=%genre%" -T "COMMENT=%comment%" -T "BAND=%albuminterpret%" -T "ALBUMARTIST=%albuminterpret%" -T "COMPOSER=%composer%" %haslyrics%–tag-from-file=LYRICS="%lyricsfile%"%haslyrics% -T "DISCNUMBER=%cdnumber%" -T "TOTALDISCS=%totalcds%" -T "TOTALTRACKS=%numtracks%" %hascover%–picture="%coverfile%"%hascover% %source% -o %dest%


TOC of the extracted CD

Track | Start | Length | Start sector | End sector
––––––––––––––––––––––––––––-
1 | 0:00.00 | 5:43.14 | 0 | 25738
2 | 5:43.14 | 3:32.11 | 25739 | 41649
3 | 9:15.25 | 0:57.19 | 41650 | 45943
4 | 10:12.44 | 4:53.51 | 45944 | 67969
5 | 15:06.20 | 4:58.20 | 67970 | 90339
6 | 20:04.40 | 5:46.19 | 90340 | 116308
7 | 25:50.59 | 1:31.07 | 116309 | 123140
8 | 27:21.66 | 2:25.66 | 123141 | 134081
9 | 29:47.57 | 2:55.33 | 134082 | 147239
10 | 32:43.15 | 2:20.34 | 147240 | 157773
11 | 35:03.49 | 1:27.50 | 157774 | 164348
12 | 36:31.24 | 1:16.54 | 164349 | 170102
13 | 37:48.03 | 1:37.24 | 170103 | 177401
14 | 39:25.27 | 2:16.48 | 177402 | 187649
15 | 41:42.00 | 2:28.48 | 187650 | 198797
16 | 44:10.48 | 6:10.05 | 198798 | 226552
17 | 50:20.53 | 2:10.46 | 226553 | 236348
18 | 52:31.24 | 1:17.46 | 236349 | 242169
19 | 53:48.70 | 1:27.30 | 242170 | 248724
20 | 55:16.25 | 1:06.50 | 248725 | 253724
21 | 56:23.00 | 2:23.36 | 253725 | 264485


Range status and errors

Selected range

Filename I:\Rips\Berlioz - La Damnation de Faust - Nelson\CD1\Hector Berlioz - La Damnation De Faust – J. Nelson Disc1.wav

Peak level 98.4 %
Extraction speed 7.0 X
Range quality 99.9 %
Test CRC 9E8EAA47
Copy CRC 9E8EAA47
Copy OK

No errors occurred


AccurateRip summary

Track 1 accurately ripped (confidence 2) [FCD0F852] (AR v2)
Track 2 accurately ripped (confidence 2) [E1D05F17] (AR v2)
Track 3 accurately ripped (confidence 2) [7B622649] (AR v2)
Track 4 accurately ripped (confidence 2) [E16585B6] (AR v2)
Track 5 accurately ripped (confidence 2) [83843A28] (AR v2)
Track 6 accurately ripped (confidence 2) [35305656] (AR v2)
Track 7 accurately ripped (confidence 2) [45D31944] (AR v2)
Track 8 accurately ripped (confidence 2) [A612AB80] (AR v2)
Track 9 accurately ripped (confidence 2) [8FA7B531] (AR v2)
Track 10 accurately ripped (confidence 2) [7500F438] (AR v2)
Track 11 accurately ripped (confidence 2) [64602420] (AR v2)
Track 12 accurately ripped (confidence 2) [C2538347] (AR v2)
Track 13 accurately ripped (confidence 2) [C687CF04] (AR v2)
Track 14 accurately ripped (confidence 2) [5E9F70D3] (AR v2)
Track 15 accurately ripped (confidence 2) [5AFE06A9] (AR v2)
Track 16 accurately ripped (confidence 2) [D5A7D7DE] (AR v2)
Track 17 accurately ripped (confidence 2) [FFE70C1C] (AR v2)
Track 18 accurately ripped (confidence 2) [DFDC877E] (AR v2)
Track 19 accurately ripped (confidence 2) [26280192] (AR v2)
Track 20 accurately ripped (confidence 2) [33D38531] (AR v2)
Track 21 accurately ripped (confidence 1) [30126E6F] (AR v2)

All tracks accurately ripped

End of status report

–– CUETools DB Plugin V2.1.6

[CTDB TOCID: 62W8uQFSk5v8MNlzNki5ta2p1dw-] found
Submit result: 62W8uQFSk5v8MNlzNki5ta2p1dw- has been confirmed
Track | CTDB Status
1 | (19/19) Accurately ripped
2 | (19/19) Accurately ripped
3 | (19/19) Accurately ripped
4 | (19/19) Accurately ripped
5 | (19/19) Accurately ripped
6 | (19/19) Accurately ripped
7 | (19/19) Accurately ripped
8 | (19/19) Accurately ripped
9 | (19/19) Accurately ripped
10 | (19/19) Accurately ripped
11 | (19/19) Accurately ripped
12 | (19/19) Accurately ripped
13 | (19/19) Accurately ripped
14 | (19/19) Accurately ripped
15 | (19/19) Accurately ripped
16 | (19/19) Accurately ripped
17 | (19/19) Accurately ripped
18 | (19/19) Accurately ripped
19 | (19/19) Accurately ripped
20 | (19/19) Accurately ripped
21 | (18/19) Accurately ripped


==== Log checksum 1A2BA75EE8E8A991542C7874010A08484A3D1F869C99FB6573BA690C061B7476 ====


Exact Audio Copy V1.6 from 23. October 2020

EAC extraction logfile from 24. April 2021, 12:59

Joyce DiDonato, Michael Spyres, Etc.; John Nelson: Strasbourg Philharmonic Orchestra, Gulbenkian Chorus, Les Petits Chanteurs De Strasbourg / Berlioz - La Damnation De Faust Op. 24

Used drive : HL-DT-STDVDRAM GH24NSD5 Adapter: 1 ID: 0

Read mode : Secure
Utilize accurate stream : Yes
Defeat audio cache : Yes
Make use of C2 pointers : No

Read offset correction : 6
Overread into Lead-In and Lead-Out : No
Fill up missing offset samples with silence : Yes
Delete leading and trailing silent blocks : No
Null samples used in CRC calculations : Yes
Used interface : Native Win32 interface for Win NT & 2000

Used output format : User Defined Encoder
Selected bitrate : 1024 kBit/s
Quality : High
Add ID3 tag : No
Command line compressor : C:\Program Files (x86)\Exact Audio Copy\FLAC\FLAC.EXE
Additional command line options : -6 -V -T "ARTIST=%artist%" -T "TITLE=%title%" -T "ALBUM=%albumtitle%" -T "DATE=%year%" -T "TRACKNUMBER=%tracknr%" -T "GENRE=%genre%" -T "COMMENT=%comment%" -T "BAND=%albuminterpret%" -T "ALBUMARTIST=%albuminterpret%" -T "COMPOSER=%composer%" %haslyrics%–tag-from-file=LYRICS="%lyricsfile%"%haslyrics% -T "DISCNUMBER=%cdnumber%" -T "TOTALDISCS=%totalcds%" -T "TOTALTRACKS=%numtracks%" %hascover%–picture="%coverfile%"%hascover% %source% -o %dest%


TOC of the extracted CD

Track | Start | Length | Start sector | End sector
––––––––––––––––––––––––––––-
1 | 0:00.00 | 1:07.36 | 0 | 5060
2 | 1:07.36 | 5:25.74 | 5061 | 29509
3 | 6:33.35 | 1:02.29 | 29510 | 34188
4 | 7:35.64 | 2:55.49 | 34189 | 47362
5 | 10:31.38 | 4:57.65 | 47363 | 69702
6 | 15:29.28 | 2:03.73 | 69703 | 79000
7 | 17:33.26 | 5:58.11 | 79001 | 105861
8 | 23:31.37 | 0:25.29 | 105862 | 107765
9 | 23:56.66 | 2:09.12 | 107766 | 117452
10 | 26:06.03 | 0:45.57 | 117453 | 120884
11 | 26:51.60 | 5:09.52 | 120885 | 144111
12 | 32:01.37 | 2:48.06 | 144112 | 156717
13 | 34:49.43 | 2:16.37 | 156718 | 166954
14 | 37:06.05 | 8:01.16 | 166955 | 203045
15 | 45:07.21 | 2:08.62 | 203046 | 212707
16 | 47:16.08 | 3:57.40 | 212708 | 230522
17 | 51:13.48 | 3:27.71 | 230523 | 246118
18 | 54:41.44 | 3:47.36 | 246119 | 263179
19 | 58:29.05 | 1:55.09 | 263180 | 271813
20 | 60:24.14 | 2:14.71 | 271814 | 281934
21 | 62:39.10 | 1:19.48 | 281935 | 287907
22 | 63:58.58 | 1:09.48 | 287908 | 293130
23 | 65:08.31 | 1:03.32 | 293131 | 297887
24 | 66:11.63 | 2:22.12 | 297888 | 308549


Range status and errors

Selected range

Filename I:\Rips\Berlioz - La Damnation de Faust - Nelson\CD2\Nelson - Berlioz - La Damnation De Faust Op. 24 Disc2.wav

Peak level 98.1 %
Extraction speed 1.8 X
Range quality 100.0 %
Test CRC 2A340298
Copy CRC 2A340298
Copy OK

No errors occurred


AccurateRip summary

Track 1 accurately ripped (confidence 2) [F20FD456] (AR v2)
Track 2 accurately ripped (confidence 2) [BDEDBDE0] (AR v2)
Track 3 accurately ripped (confidence 2) [2EA5085F] (AR v2)
Track 4 accurately ripped (confidence 2) [B8AB671A] (AR v2)
Track 5 accurately ripped (confidence 2) [55229DCE] (AR v2)
Track 6 accurately ripped (confidence 2) [B62ABC4E] (AR v2)
Track 7 accurately ripped (confidence 2) [C7125820] (AR v2)
Track 8 accurately ripped (confidence 2) [F67938BB] (AR v2)
Track 9 accurately ripped (confidence 1) [39F64553] (AR v2)
Track 10 accurately ripped (confidence 2) [D3012A3B] (AR v2)
Track 11 accurately ripped (confidence 1) [703F0F16] (AR v2)
Track 12 accurately ripped (confidence 1) [174A11EE] (AR v2)
Track 13 accurately ripped (confidence 2) [AF256221] (AR v2)
Track 14 accurately ripped (confidence 1) [B870280A] (AR v2)
Track 15 accurately ripped (confidence 2) [E7743866] (AR v2)
Track 16 accurately ripped (confidence 2) [AD6BE8AD] (AR v2)
Track 17 accurately ripped (confidence 2) [C0DC87EF] (AR v2)
Track 18 accurately ripped (confidence 1) [AEE5AD08] (AR v2)
Track 19 accurately ripped (confidence 1) [0EA18516] (AR v2)
Track 20 accurately ripped (confidence 1) [4925E5B6] (AR v2)
Track 21 accurately ripped (confidence 1) [8E4E2765] (AR v2)
Track 22 accurately ripped (confidence 1) [F41A4250] (AR v2)
Track 23 accurately ripped (confidence 1) [B9531B42] (AR v2)
Track 24 accurately ripped (confidence 1) [030FB26C] (AR v2)

All tracks accurately ripped

End of status report

–– CUETools DB Plugin V2.1.6

[CTDB TOCID: 5F6gVM7ddZpC0yfmIc3wEpGj2rA-] found
Submit result: 5F6gVM7ddZpC0yfmIc3wEpGj2rA- has been confirmed
Track | CTDB Status
1 | (17/17) Accurately ripped
2 | (17/17) Accurately ripped
3 | (17/17) Accurately ripped
4 | (17/17) Accurately ripped
5 | (17/17) Accurately ripped
6 | (17/17) Accurately ripped
7 | (17/17) Accurately ripped
8 | (17/17) Accurately ripped
9 | (16/17) Accurately ripped
10 | (17/17) Accurately ripped
11 | (16/17) Accurately ripped
12 | (16/17) Accurately ripped
13 | (17/17) Accurately ripped
14 | (16/17) Accurately ripped
15 | (17/17) Accurately ripped
16 | (17/17) Accurately ripped
17 | (17/17) Accurately ripped
18 | (16/17) Accurately ripped
19 | (16/17) Accurately ripped
20 | (16/17) Accurately ripped
21 | (16/17) Accurately ripped
22 | (16/17) Accurately ripped
23 | (16/17) Accurately ripped
24 | (16/17) Accurately ripped


==== Log checksum 0B414089EDF5B69339CE9EC8077360B6DBC01A49EB86E5486F8CE43A5F188080 ====

John Nelson, Orchestre Philharmonique de Strasbourg - Berlioz: La Damnation de Faust (2019)

Thanks to the original releaser