Tags
Language
Tags

Johnny Reinhard - Raven (1999)

Posted By: basa005
Johnny Reinhard - Raven (1999)

Johnny Reinhard - Raven (1999)
EAC RIP | APE + CUE + LOG | COVER + BOOK | RAR FILES (3% recovery) | 301 Mb
Classical | The Stereo Society SS002

Johnny Reinhard - Raven (1999)

Tracklist:
1. Atlantis
Don Conreaux, David Galt, Lee Gongwer, Ben Hume, Ron Kozak (shells), David Grego (tuba). Tom Goldstein (chimes)
2. Trio on the Cuff 6
Johnny Reinhard (bassoon), Ulrich Krieger (didjeridu), Yoshiaki Ochi (percussion)
3. Chaco Canyon
Andrew Bolotowsky (solo flutes)
4. Trio on the Cuff 1
Johnny Reinhard (bassoon), Ulrich Krieger (didjeridu), Yoshiaki Ochi (percussion)
5. Dune
1. Shai-halud (the Worm) - Adagio
2. Paul Muad'Dib - Andante
3. Leo Atreides II - Andante (Variation)
4. The Spacing Guild - Bridge
5. The Tleilaxu - Development
6. The Ixians - Sounds of Nature
7. Fremen - Con Bravura
8. Spice - Bubbly
Johnny Reinhard (solo bassoon)
6. Trio on the Cuff 2
Johnny Reinhard (bassoon), Ulrich Krieger (didjeridu), Yoshiaki Ochi (percussion)
7. Raven
Paul Savior (voice), Johnny Reinhard (bassoon), Esther Lamneck (clarinet/tarogato) , Chris Washburne (trombone), Ulrich Krieger (saxophone), Guy Tyler (string bass), Don Conreaux (gong)
8. Trio on the Cuff 9
Johnny Reinhard (bassoon), Ulrich Krieger (didjeridu), Yoshiaki Ochi (percussion)
9. Circle
Johnny Reinhard (bassoons), Ulrich Krieger (didjeridus), Yoshiaki Ochi (multiple percussion)

Johnny Reinhard has pursued an utterly distinctive course in microtonal performance and composition. Johnny Reinhard is a man of many hats: a virtuoso bassoonist, composer, and musical director.
With much acclaim, Dune from his Raven CD, has become Reinhard's signature piece. Like many fans of Frank Herbert's powerful 'Dune' novels, Reinhard was disappointed with the movie. He thought 'well, I'll take care of that,' and wrote a bassoon solo that does it up just fine. To this day, Dune has been well received by bassoon enthusiasts all over the world. Perhaps it will be, as one reviewer put it, the next contemporary music competition piece for bassoon.
Joseph Woodard of the Los Angeles Times comments: "Some of the most memorable moments were in solo settings. Bassoonist Johnny Reinhard's Dune was a show-stopper in which he explored the didjeridu-like overtones and other new techniques on his instrument. He literally took it apart at one point, to play the expressive, witty beast within an often staid instrument."


Exact Audio Copy V1.0 beta 2 from 29. April 2011

EAC extraction logfile from 26. October 2011, 14:40

Johnny Reinhard / Raven

Used drive : TSSTcorpCDDVDW SE-S204N Adapter: 2 ID: 0

Read mode : Secure
Utilize accurate stream : Yes
Defeat audio cache : Yes
Make use of C2 pointers : No

Read offset correction : 6
Overread into Lead-In and Lead-Out : No
Fill up missing offset samples with silence : Yes
Delete leading and trailing silent blocks : No
Null samples used in CRC calculations : No
Used interface : Native Win32 interface for Win NT & 2000

Used output format : Internal WAV Routines
Sample format : 44.100 Hz; 16 Bit; Stereo


TOC of the extracted CD

Track | Start | Length | Start sector | End sector
––––––––––––––––––––––––––––-
1 | 0:00.00 | 11:40.70 | 0 | 52569
2 | 11:40.70 | 1:45.72 | 52570 | 60516
3 | 13:26.67 | 7:35.62 | 60517 | 94703
4 | 21:02.54 | 2:34.61 | 94704 | 106314
5 | 23:37.40 | 8:19.57 | 106315 | 143796
6 | 31:57.22 | 2:46.08 | 143797 | 156254
7 | 34:43.30 | 10:03.22 | 156255 | 201501
8 | 44:46.52 | 3:06.35 | 201502 | 215486
9 | 47:53.12 | 7:15.65 | 215487 | 248176


Range status and errors

Selected range

Filename C:\avaxhome\Johnny Reinhard - Raven.wav

Peak level 100.0 %
Extraction speed 7.0 X
Range quality 99.9 %
Copy CRC B2CF897D
Copy OK

No errors occurred


AccurateRip summary

Track 1 not present in database
Track 2 not present in database
Track 3 not present in database
Track 4 not present in database
Track 5 not present in database
Track 6 not present in database
Track 7 not present in database
Track 8 not present in database
Track 9 not present in database

None of the tracks are present in the AccurateRip database

End of status report

==== Log checksum CD5F763147E48D8EE20ADE78A557BB115C5073F48C7E339EBED38C20DF12365E ====
megaupload
megaupload
fileserve

password: basa005