Tags
Language
Tags

Joseph-Ermend Bonnal - Quatuors à cordes nr. 1 & 2 - Quatuor Debussy (2000)

Posted By: Goodspeed
Joseph-Ermend Bonnal - Quatuors à cordes nr. 1 & 2 - Quatuor Debussy (2000)

Joseph-Ermend Bonnal - Quatuors à cordes nr. 1 & 2 - Quatuor Debussy (2000)
EAC+LOG+CUE | Flac (image) | Size: 243 MB | Artwork @ 600dpi: 39 MB | TT: 54:32 | 5% Recovery
Genre: Classical | Style: Chamber music | Release date: January 1, 2000 | | Label: Arion | Catalog nr.: ARN48504

These quartets are the product of a supreme practicioner of his craft. According to the liner notes, Bonnal was held in high esteem by his peers (such as Ravel & Dukas); he was an organ student of Vierne & Tournemire, and a composition student of Faure. As an organist, Bonnal was also a deputy to Tournemire & Widor in their respective postings.

How such a gifted composer could sink into utter obscurity is totally beyond me. I am fairly well-acquainted with this period's repetoire, and had never heard of Bonnal. After hearing these quartets (he reminds me, to a degree, of Ravel & Debussy, but his own voice is clear & distinctive) I will be eagerly seeking out his symphonies and organ works –- if I can find them.

Usually, obscure composers have a reason for their obscurity. They may be competent enough, but their music just doesn't reach out and grab the listener. One cannot say that of Bonnal. These quartets are absolutely splendid!

Joseph-Ermend Bonnal - Quatuors à cordes nr. 1 & 2 - Quatuor Debussy (2000)


Tracklist:
1. Quatuor à cordes No. 1: Vif 9:09
2. Quatuor à cordes No. 1: Assez vif, âpre et sarcastique 7:14
3. Quatuor à cordes No. 1: Grave et expressif 9:53
4. Quatuor à cordes No. 1: Très animé 7:08
5. Quatuor à cordes No. 2: Grave Juvénile 6:16
6. Quatuor à cordes No. 2: Gravement 9:12
7. Quatuor à cordes No. 2: Vif 5:40

Joseph-Ermend Bonnal - Quatuors à cordes nr. 1 & 2 - Quatuor Debussy (2000)


Personell:
- Christophe Collette, violin
- Dominique Lonca, violin
- Vincent Depreco, viola
- Yannick Callier, cello

Joseph-Ermend Bonnal - Quatuors à cordes nr. 1 & 2 - Quatuor Debussy (2000)

Joseph-Ermend Bonnal
(1880-1944)


Exact Audio Copy V1.0 beta 4 from 7. December 2014

EAC extraction logfile from 28. April 2019, 16:04

Quator Debussy / Joseph-Ermend Bonnal:Quatuor a codes No.1&2

Used drive : HL-DT-STDVDRAM GHA2N Adapter: 1 ID: 0

Read mode : Secure
Utilize accurate stream : Yes
Defeat audio cache : No
Make use of C2 pointers : No

Read offset correction : 667
Overread into Lead-In and Lead-Out : No
Fill up missing offset samples with silence : Yes
Delete leading and trailing silent blocks : No
Null samples used in CRC calculations : Yes
Used interface : Native Win32 interface for Win NT & 2000

Used output format : User Defined Encoder
Selected bitrate : 768 kBit/s
Quality : High
Add ID3 tag : No
Command line compressor : C:\Program Files (x86)\Exact Audio Copy\FLAC\FLAC.EXE
Additional command line options : -6 -V -T "ARTIST=%artist%" -T "TITLE=%title%" -T "ALBUM=%albumtitle%" -T "DATE=%year%" -T "TRACKNUMBER=%tracknr%" -T "GENRE=%genre%" -T "COMMENT=%comment%" -T "BAND=%albuminterpret%" -T "ALBUMARTIST=%albuminterpret%" -T "COMPOSER=%composer%" %haslyrics%–tag-from-file=LYRICS="%lyricsfile%"%haslyrics% -T "DISCNUMBER=%cdnumber%" -T "TOTALDISCS=%totalcds%" -T "TOTALTRACKS=%numtracks%" %hascover%–picture="%coverfile%"%hascover% %source% -o %dest%


TOC of the extracted CD

Track | Start | Length | Start sector | End sector
––––––––––––––––––––––––––––-
1 | 0:00.00 | 9:15.64 | 0 | 41688
2 | 9:15.64 | 7:17.71 | 41689 | 74534
3 | 16:33.60 | 9:58.10 | 74535 | 119394
4 | 26:31.70 | 7:22.05 | 119395 | 152549
5 | 33:54.00 | 6:20.22 | 152550 | 181071
6 | 40:14.22 | 9:17.08 | 181072 | 222854
7 | 49:31.30 | 5:40.27 | 222855 | 248381


Range status and errors

Selected range

Filename C:\EACrips\Joseph-Ermend Bonnal - Quatuors a cordes No.1 & 2 - Quatuor Debussy (2000).wav

Peak level 95.2 %
Extraction speed 0.5 X
Range quality 99.9 %
Test CRC A22E00B5
Copy CRC A22E00B5
Copy OK

No errors occurred


AccurateRip summary

Track 1 accurately ripped (confidence 2) [13A92F76] (AR v2)
Track 2 accurately ripped (confidence 2) [146E87C7] (AR v2)
Track 3 accurately ripped (confidence 2) [35342860] (AR v2)
Track 4 accurately ripped (confidence 2) [E1321D3A] (AR v2)
Track 5 accurately ripped (confidence 2) [F6C4FB68] (AR v2)
Track 6 accurately ripped (confidence 2) [916D1A62] (AR v2)
Track 7 accurately ripped (confidence 2) [967739B9] (AR v2)

All tracks accurately ripped

End of status report

–– CUETools DB Plugin V2.1.4

[CTDB TOCID: Mm_.G5Gi0x6yA2Czy8lF2_SIXMA-] found
Submit result: already submitted
Track | CTDB Status
1 | (8/8) Accurately ripped
2 | (8/8) Accurately ripped
3 | (8/8) Accurately ripped
4 | (8/8) Accurately ripped
5 | (8/8) Accurately ripped
6 | (8/8) Accurately ripped
7 | (7/8) Accurately ripped


==== Log checksum C0FEA7C7BB31BFD2B7FCEA8BF948BD03C9E8E20785ED3F7F796513F9DDFFC424 ====