Subcategories

Josh Groban - Noël (Deluxe Edition) (2007/2017)

Posted By: SERTiL
Josh Groban - Noël (Deluxe Edition) (2007/2017)

Josh Groban - Noël (Deluxe Edition)
Classical Crossover, Vocal Pop | WEB FLAC (tracks) & front cover | 79:41 min | 453 MB
Label: Reprise Records | Tracks: 19 | Rls.date: 2017

"Multi-platinum, international recording artist and songwriter Josh Groban will release a deluxe version of his beloved Christmas album Noël on November 3, 2017 via Reprise Records.

The new album will consist of the original 13 tracks with extra new songs, including four brand new, never before released recordings:

● White Christmas - a gorgeous, brand new recording with a full 70 piece orchestra recorded in Abbey Road, London.

● Christmas Time Is Here - duet with the legendary Tony Bennett. This incredibly famous, cross-generational song from “A Charlie Brown Christmas” will surely be a hit at family Christmas parties.

● Have Yourself A Merry Little Christmas - following Josh’s platinum album Stages, he wanted a holiday song that matched the theme of Stages and found that in this famous Christmas song from the show/film Meet Me In St. Louis.

● Happy XMas (War is Over) - the poignant, classic Christmas song written by John Lennon & Yoko Ono with a powerful message that seems more relevant now than ever.

● Believe - the Academy Award-nominated song from the Polar Express film soundtrack, never before available on a Josh Groban release."

Tracklist:
01. Silent Night 04:11
02. Little Drummer Boy 04:20
03. I'll Be Home For Christmas 04:14
04. Ave Maria 05:17
05. Angels We Have Heard On High 03:30
06. Thankful 04:48
07. The Christmas Song 03:54
08. What Child Is This? 03:51
09. The First Noel 04:33
10. Petit Papa Noel 04:04
11. It Came Upon a Midnight Clear 04:13
12. Panis Angelicus 04:17
13. O Come All Ye Faithful 04:38
14. White Christmas 03:56
15. Christmas Time Is Here 03:30
16. Have Yourself a Merry Little Christmas (Piano / Vocal V 03:53
17. Happy Xmas (War Is Over) 03:26
18. Believe 04:03
19. O Holy Night 04:48

PERFORMER: auCDtect Task Manager, ver. 1.6.0 RC1 build 1.6.0.1
Copyright © 2008-2010 y-soft. All rights reserved

ANALYZER: auCDtect: CD records authenticity detector, version 0.8.2
Copyright © 2004 Oleg Berngardt. All rights reserved.
Copyright © 2004 Alexander Djourik. All rights reserved.


FILE: 19. O Holy Night.flac
Size: 29732564 Hash: C4547CE25107669E8104CD5AD7F1DF47 Accuracy: -m0
Conclusion: CDDA 100%
Signature: 7C50790CC905CDF3B7D20B6F43DBFE422D07863F
FILE: 18. Believe.flac
Size: 27470653 Hash: 5CE306B605379FD1199168FAB2302112 Accuracy: -m0
Conclusion: CDDA 100%
Signature: DB2F65BED79B1DFDB4C31D14F97BEF5F274E1448
FILE: 17. Happy Xmas (War Is Over).flac
Size: 24150092 Hash: 5EDE9426059694D20FDCD0FF3248F5C5 Accuracy: -m0
Conclusion: CDDA 100%
Signature: BFC3B38114A0B2AF41F8ACD6692453A9F3F5E3F3
FILE: 16. Have Yourself a Merry Little Christmas (Piano - Vocal Version).flac
Size: 21296638 Hash: 48AC6596B0BFD0ECC9925C86E78D61F4 Accuracy: -m0
Conclusion: CDDA 100%
Signature: A7222F6FF2EF461FC89CCE488A2A698F206EE730
FILE: 15. Christmas Time Is Here (with Tony Bennett) [feat. Tony Bennett].flac
Size: 22055656 Hash: A9D0C65B4F01093C55747DE5C136EA1D Accuracy: -m0
Conclusion: CDDA 100%
Signature: BBB05F3DB17B38E5C0309CD5E2B17CA4B03A5330
FILE: 14. White Christmas.flac
Size: 22905549 Hash: 18ECCAAC86E7A816314E1AD26217F2AB Accuracy: -m0
Conclusion: CDDA 100%
Signature: 722605AFF44795243EDBA75FC3B602612948FB34
FILE: 13. O Come All Ye Faithful (with the Mormon Tabernacle Choir & Craig Jessop) [feat. The Mormon Tabernacle Choir & Craig Jessop].flac
Size: 28739623 Hash: B4F1659A09425EF94A95BC0D824EF182 Accuracy: -m0
Conclusion: CDDA 100%
Signature: D203C50F42813CBB239DD4DC0A9A8FCAD791BEAB
FILE: 12. Panis Angelicus.flac
Size: 23493953 Hash: D301C890B9147164CE357D4A51D7EEE9 Accuracy: -m0
Conclusion: CDDA 99%
Signature: 8AAF05BC005E07020F8D0551F5AC2C085536E2B7
FILE: 11. It Came Upon a Midnight Clear.flac
Size: 26977871 Hash: 36F0066D447E79B27D6ECD0AC279139C Accuracy: -m0
Conclusion: CDDA 100%
Signature: 6E2464E84AB90FACF0196EA94B6808E90E160369
FILE: 10. Petit Papa Noël.flac
Size: 23242539 Hash: 0603944EF0BDB1C3B4ACA59508F32F6D Accuracy: -m0
Conclusion: CDDA 100%
Signature: 3CED9CF1BCE356CCB6AA7D37835A2BF17921E228
FILE: 09. The First Noël (with Faith Hill) [feat. Faith Hill].flac
Size: 27493263 Hash: E9AEF2207873FEF52BB9E71AB2BA1DDA Accuracy: -m0
Conclusion: CDDA 100%
Signature: C67D66FF5FF9DA41A94AA6E7ECFDEED03960ED28
FILE: 08. What Child Is This.flac
Size: 23599822 Hash: BD49CA5A677B0D7152ECACB65C318A97 Accuracy: -m0
Conclusion: CDDA 100%
Signature: 861E68AF45DA181D647C39846FF93C36625A2BA9
FILE: 07. The Christmas Song.flac
Size: 20618343 Hash: ECC17B8EF67FFBEC3F06D1A446F8F84B Accuracy: -m0
Conclusion: CDDA 100%
Signature: 321AFCB5B2B40BBE83B8208386127F03F96FC11F
FILE: 06. Thankful.flac
Size: 27540746 Hash: 90834B5435482BEB8A83906B6E4D1802 Accuracy: -m0
Conclusion: CDDA 100%
Signature: 800B741E60D3020D053228CAD0EC355755F7BA3E
FILE: 05. Angels We Have Heard On High (with Brian McKnight) [feat. Brian McKnight].flac
Size: 20735142 Hash: 8BD6E8CD9790BCC24F9B67211526F541 Accuracy: -m0
Conclusion: CDDA 100%
Signature: 5CA53838660B4AD7C4DF9534EB7EFEC9DFE6F44E
FILE: 04. Ave Maria.flac
Size: 30565601 Hash: 9557207088E274FDACDEFDC64B5C2061 Accuracy: -m0
Conclusion: CDDA 100%
Signature: F7863DCF208D5A994198AC6A7EF1C8C536261D2B
FILE: 03. I'll Be Home For Christmas.flac
Size: 23860729 Hash: 41D89DCA03C5EE233D3D65EC65415F66 Accuracy: -m0
Conclusion: CDDA 100%
Signature: 82347D3523AB0F3C8D4646E3721DC2EE492F14C8
FILE: 02. Little Drummer Boy.flac
Size: 27114653 Hash: 48BD47CD17EF66DB205AD17694DA4DBC Accuracy: -m0
Conclusion: CDDA 100%
Signature: 24B2224669016927B02254CE38265A60767BF5D2
FILE: 01. Silent Night.flac
Size: 23584339 Hash: 579832FCCE32E6B2C3DE383E4712E2CA Accuracy: -m0
Conclusion: CDDA 100%
Signature: C20DE147BC4990D8112380112CEAC662213469B6

foobar2000 1.3.7 / Dynamic Range Meter 1.1.1
log date: 2017-11-02 23:15:00

––––––––––––––––––––––––––––––––––––––––
Analyzed: Josh Groban / Noël
––––––––––––––––––––––––––––––––––––––––

DR Peak RMS Duration Track
––––––––––––––––––––––––––––––––––––––––
DR8 0.00 dB -12.87 dB 4:11 01-Silent Night
DR10 0.00 dB -13.81 dB 4:20 02-Little Drummer Boy
DR10 0.00 dB -13.69 dB 4:17 03-I'll Be Home For Christmas
DR8 0.00 dB -12.53 dB 5:18 04-Ave Maria
DR8 0.00 dB -12.60 dB 3:32 05-Angels We Have Heard On High (with Brian McKnight) [feat. Brian McKnight]
DR8 0.00 dB -13.24 dB 4:50 06-Thankful
DR11 0.00 dB -16.07 dB 3:55 07-The Christmas Song
DR9 0.00 dB -12.36 dB 3:54 08-What Child Is This?
DR7 0.00 dB -11.46 dB 4:34 09-The First Noël (with Faith Hill) [feat. Faith Hill]
DR9 0.00 dB -13.84 dB 4:05 10-Petit Papa Noël
DR8 0.00 dB -12.90 dB 4:19 11-It Came Upon a Midnight Clear
DR10 0.00 dB -15.25 dB 4:19 12-Panis Angelicus
DR8 0.00 dB -12.43 dB 4:39 13-O Come All Ye Faithful (with the Mormon Tabernacle Choir & Craig Jessop) [feat. The Mormon Tabernacle Choir & Craig Jessop]
DR8 0.00 dB -12.54 dB 3:57 14-White Christmas
DR10 0.00 dB -12.42 dB 3:31 15-Christmas Time Is Here (with Tony Bennett) [feat. Tony Bennett]
DR11 0.00 dB -14.67 dB 3:54 16-Have Yourself a Merry Little Christmas (Piano / Vocal Version)
DR7 0.00 dB -9.74 dB 3:26 17-Happy Xmas (War Is Over)
DR8 -1.85 dB -12.71 dB 4:03 18-Believe
DR7 0.00 dB -11.50 dB 4:49 19-O Holy Night
––––––––––––––––––––––––––––––––––––––––

Number of tracks: 19
Official DR value: DR9

Samplerate: 44100 Hz
Channels: 2
Bits per sample: 16
Bitrate: 817 kbps
Codec: FLAC
================================================================================


Thanks to the Original customer.