Subcategories
Tags
Language
Tags

Joshua Abrams' Cloud Script - Cloud Script (2020)

Posted By: gribovar
Joshua Abrams' Cloud Script - Cloud Script (2020)

Joshua Abrams' Cloud Script - Cloud Script (2020)
EAC Rip | FLAC (tracks+.cue+log) - 283 MB | MP3 CBR 320 kbps (LAME 3.93) - 108 MB | Covers - 24 MB
Genre: Avant-garde Jazz, Free Jazz | RAR 3% Rec. | Label: Rogueart (ROG-0107)

Double bassist Joshua Abrams provides the compositions for this studio album performed with Ari Brown on tenor sax, Jeff Parker on guitar and Gerald Cleaver on drums, an exceptional quartet of master improvisers who balance lyrical and soulful playing with explorative impulse, fueled by an empathetic responsiveness that only a long history of collaboration can engender.
Tracklist:
01. In Place of Memory
02. Harbor
03. Echo Tracer
04. Duke Hill
05. Collapsing Novelty
06. Coniunctio

Total time: 46:00

Exact Audio Copy V1.3 from 2. September 2016

EAC extraction logfile from 28. April 2021, 2:35

Joshua Abrams' Cloud Script / Cloud Script

Used drive : ATAPI DVD A DH16AASH Adapter: 1 ID: 0

Read mode : Secure
Utilize accurate stream : Yes
Defeat audio cache : Yes
Make use of C2 pointers : No

Read offset correction : 6
Overread into Lead-In and Lead-Out : No
Fill up missing offset samples with silence : Yes
Delete leading and trailing silent blocks : No
Null samples used in CRC calculations : Yes
Used interface : Native Win32 interface for Win NT & 2000
Gap handling : Appended to previous track

Used output format : User Defined Encoder
Selected bitrate : 1024 kBit/s
Quality : High
Add ID3 tag : No
Command line compressor : C:\Program Files (x86)\Exact Audio Copy\Flac\flac.exe
Additional command line options : -8 -e -V -T "ARTIST=%artist%" -T "TITLE=%title%" -T "ALBUM=%albumtitle%" -T "DATE=%year%" -T "TRACKNUMBER=%tracknr%" -T "GENRE=%genre%" -T "PERFORMER=%albuminterpret%" -T "COMPOSER=%composer%" %haslyrics%–tag-from-file=LYRICS="%lyricsfile%"%haslyrics% -T "ALBUMARTIST=%albumartist%" -T "DISCNUMBER=%cdnumber%" -T "TOTALDISCS=%totalcds%" -T "TOTALTRACKS=%numtracks%" -T "COMMENT=%comment%" %source% -o %dest%


TOC of the extracted CD

Track | Start | Length | Start sector | End sector
––––––––––––––––––––––––––––-
1 | 0:00.00 | 9:14.25 | 0 | 41574
2 | 9:14.25 | 5:03.51 | 41575 | 64350
3 | 14:18.01 | 8:59.65 | 64351 | 104840
4 | 23:17.66 | 5:50.47 | 104841 | 131137
5 | 29:08.38 | 9:29.45 | 131138 | 173857
6 | 38:38.08 | 7:22.16 | 173858 | 207023


Track 1

Filename X:\A\Joshua Abrams' Cloud Script\2020 Cloud Script\01 - In Place of Memory.wav

Pre-gap length 0:00:02.00

Peak level 98.8 %
Extraction speed 3.7 X
Track quality 100.0 %
Test CRC F3D446F5
Copy CRC F3D446F5
Track not present in AccurateRip database
Copy OK

Track 2

Filename X:\A\Joshua Abrams' Cloud Script\2020 Cloud Script\02 - Harbor.wav

Pre-gap length 0:00:03.52

Peak level 94.4 %
Extraction speed 4.2 X
Track quality 100.0 %
Test CRC 0D4E7E61
Copy CRC 0D4E7E61
Track not present in AccurateRip database
Copy OK

Track 3

Filename X:\A\Joshua Abrams' Cloud Script\2020 Cloud Script\03 - Echo Tracer.wav

Pre-gap length 0:00:03.24

Peak level 96.6 %
Extraction speed 4.9 X
Track quality 100.0 %
Test CRC 121B8678
Copy CRC 121B8678
Track not present in AccurateRip database
Copy OK

Track 4

Filename X:\A\Joshua Abrams' Cloud Script\2020 Cloud Script\04 - Duke Hill.wav

Pre-gap length 0:00:03.08

Peak level 98.8 %
Extraction speed 5.3 X
Track quality 100.0 %
Test CRC ABBD3F7D
Copy CRC ABBD3F7D
Track not present in AccurateRip database
Copy OK

Track 5

Filename X:\A\Joshua Abrams' Cloud Script\2020 Cloud Script\05 - Collapsing Novelty.wav

Pre-gap length 0:00:03.10

Peak level 98.8 %
Extraction speed 6.1 X
Track quality 100.0 %
Test CRC BC43D0AD
Copy CRC BC43D0AD
Track not present in AccurateRip database
Copy OK

Track 6

Filename X:\A\Joshua Abrams' Cloud Script\2020 Cloud Script\06 - Coniunctio.wav

Pre-gap length 0:00:02.90

Peak level 98.8 %
Extraction speed 5.5 X
Track quality 99.9 %
Test CRC 7F3B12FF
Copy CRC 7F3B12FF
Track not present in AccurateRip database
Copy OK


None of the tracks are present in the AccurateRip database

No errors occurred

End of status report

–– CUETools DB Plugin V2.1.6

[CTDB TOCID: RGTDvXlsplkzaby0Clrqm.02wqs-] found
Submit result: RGTDvXlsplkzaby0Clrqm.02wqs- has been confirmed
Track | CTDB Status
1 | (2/2) Accurately ripped
2 | (2/2) Accurately ripped
3 | (2/2) Accurately ripped
4 | (2/2) Accurately ripped
5 | (2/2) Accurately ripped
6 | (2/2) Accurately ripped


==== Log checksum 2ADB246D084FBA3D22F74D78DE033FBE4EDE257A662B009AC9558071E0D19BBA ====

[CUETools log; Date: 04.05.2021 12:19:51; Version: 2.1.4]
[CTDB TOCID: RGTDvXlsplkzaby0Clrqm.02wqs-] found.
Track | CTDB Status
1 | (3/3) Accurately ripped
2 | (3/3) Accurately ripped
3 | (3/3) Accurately ripped
4 | (3/3) Accurately ripped
5 | (3/3) Accurately ripped
6 | (3/3) Accurately ripped
[AccurateRip ID: 000b0763-003aa5f6-4a0ac806] disk not present in database.

Track Peak [ CRC32 ] [W/O NULL] [ LOG ]
– 98,8 [43652BCB] [EAA8DFFE]
01 98,8 [F3D446F5] [FD10C466] CRC32
02 94,4 [0D4E7E61] [E1598BE2] CRC32
03 96,6 [121B8678] [BA4D0387] CRC32
04 98,8 [ABBD3F7D] [99FAC045] CRC32
05 98,8 [BC43D0AD] [25ECA1B6] CRC32
06 98,8 [7F3B12FF] [A381D4A0] CRC32

Thanks to neuroin