Tags
Language
Tags

Kelly Rossum - Line (2006) {612 Sides} **[RE-UP]**

Posted By: TestTickles
The recording was done live in one room with no overdubs. This is a jazz record.


Kelly Rossum - Line (2006) {612 Sides} **[RE-UP]**

Kelly Rossum - Line (2006) {612 Sides}
EAC Rip | FLAC with CUE and log | scans | 370 mb
MP3 CBR 320kbps | RAR | 147 mb
Genre: jazz

Line is what Kelly Rossum named his 2006 album. The trumpeter is joined by many but not a lot. This comes through the 612 Sides label for fun and accuracy.

Kelly Rossum - Line (2006) {612 Sides} **[RE-UP]**

01. Line I
02. La Vita A Roma
03. Line II
04. Sitting On The Dock Looking At Stars
05. Sand Dunes
06. Line III
07. Seduction
08. Line
09. Soft
10. Line IV
11. Places Of The Mindful
12. Line V

Kelly Rossum-trumpet
Woody Witt-tenor saxophone
Chris Thomson-tenor & soprano saxophones
Chris Bates-bass
J.T. Bates-drums

Produced by Kelly Rossum
Recorded, mixed & mastered by Matthew Zimmerman

Recorded 5-7 January, 2006
Mixed 9 January & 7 March, 2006

Kelly Rossum - Line (2006) {612 Sides} **[RE-UP]**


EAC extraction logfile from 19. June 2017, 16:32 for CD
Kelly Rossum / Line

Used drive : TSSTcorpDVD+-RW TS-H653B Adapter: 2 ID: 0
Read mode : Secure with NO C2, accurate stream, disable cache
Read offset correction : 6
Overread into Lead-In and Lead-Out : No

Used output format : Internal WAV Routines
44.100 Hz; 16 Bit; Stereo

Other options :
Fill up missing offset samples with silence : Yes
Delete leading and trailing silent blocks : No
Native Win32 interface for Win NT & 2000


Track 1
Filename C:\Documents and Settings\Desktop\Kelly Rossum - Line (2006) [FLAC] {612 Sides}\01 - Line I.wav

Pre-gap length 0:00:02.00

Peak level 100.0 %
Track quality 100.0 %
Test CRC 2B27BA31
Copy CRC 2B27BA31
Copy OK

Track 2
Filename C:\Documents and Settings\Desktop\Kelly Rossum - Line (2006) [FLAC] {612 Sides}\02 - La Vita A Roma.wav

Peak level 100.0 %
Track quality 100.0 %
Test CRC 0CCC9F4B
Copy CRC 0CCC9F4B
Copy OK

Track 3
Filename C:\Documents and Settings\Desktop\Kelly Rossum - Line (2006) [FLAC] {612 Sides}\03 - Line II.wav

Peak level 100.0 %
Track quality 100.0 %
Test CRC 8FDD43F2
Copy CRC 8FDD43F2
Copy OK

Track 4
Filename C:\Documents and Settings\Desktop\Kelly Rossum - Line (2006) [FLAC] {612 Sides}\04 - Sitting On The Dock Looking At Stars.wav

Pre-gap length 0:00:01.00

Peak level 100.0 %
Track quality 100.0 %
Test CRC 91A23CE4
Copy CRC 91A23CE4
Copy OK

Track 5
Filename C:\Documents and Settings\Desktop\Kelly Rossum - Line (2006) [FLAC] {612 Sides}\05 - Sand Dunes.wav

Pre-gap length 0:00:02.00

Peak level 100.0 %
Track quality 99.9 %
Test CRC F62F836F
Copy CRC F62F836F
Copy OK

Track 6
Filename C:\Documents and Settings\Desktop\Kelly Rossum - Line (2006) [FLAC] {612 Sides}\06 - Line III.wav

Peak level 100.0 %
Track quality 100.0 %
Test CRC FA2C67E3
Copy CRC FA2C67E3
Copy OK

Track 7
Filename C:\Documents and Settings\Desktop\Kelly Rossum - Line (2006) [FLAC] {612 Sides}\07 - Seduction.wav

Pre-gap length 0:00:02.00

Peak level 100.0 %
Track quality 100.0 %
Test CRC A7AF31DA
Copy CRC A7AF31DA
Copy OK

Track 8
Filename C:\Documents and Settings\Desktop\Kelly Rossum - Line (2006) [FLAC] {612 Sides}\08 - Line.wav

Pre-gap length 0:00:01.00

Peak level 100.0 %
Track quality 100.0 %
Test CRC 21E0C40A
Copy CRC 21E0C40A
Copy OK

Track 9
Filename C:\Documents and Settings\Desktop\Kelly Rossum - Line (2006) [FLAC] {612 Sides}\09 - Soft.wav

Pre-gap length 0:00:01.00

Peak level 100.0 %
Track quality 100.0 %
Test CRC 383B4654
Copy CRC 383B4654
Copy OK

Track 10
Filename C:\Documents and Settings\Desktop\Kelly Rossum - Line (2006) [FLAC] {612 Sides}\10 - Line IV.wav

Pre-gap length 0:00:02.00

Peak level 98.1 %
Track quality 100.0 %
Test CRC D90186ED
Copy CRC D90186ED
Copy OK

Track 11
Filename C:\Documents and Settings\Desktop\Kelly Rossum - Line (2006) [FLAC] {612 Sides}\11 - Places Of The Mindful.wav

Pre-gap length 0:00:02.00

Peak level 35.3 %
Track quality 100.0 %
Test CRC C2A61388
Copy CRC C2A61388
Copy OK

Track 12
Filename C:\Documents and Settings\Desktop\Kelly Rossum - Line (2006) [FLAC] {612 Sides}\12 - Line V.wav

Pre-gap length 0:00:02.00

Peak level 100.0 %
Track quality 100.0 %
Test CRC 05BDCFC8
Copy CRC 05BDCFC8
Copy OK

No errors occured


End of status report


Kelly Rossum - Line (2006) {612 Sides} **[RE-UP]**