Subcategories
Tags
Language
Tags

Kathy Crawford - s/t (1999) **[RE-UP]**

Posted By: TestTickles
Kathy Crawford - s/t (1999) **[RE-UP]**

Kathy Crawford - s/t (1999)
EAC Rip | FLAC with CUE and log | scans | 231 mb
MP3 CBR 320kbps | RAR | 87 mb
Genre: pop

Kathy Crawford is the self-titled debut album by American pop singer Kathy Crawford. She collaborated with her husband, who played all of the instruments. This is believed to be her only disc.

Kathy Crawford - s/t (1999) **[RE-UP]**

01. You're Still In My Heart
02. Don't Look Back
03. Love Is In The Air
04. Never Been
05. I Love This Land
06. Kenny's Song
07. Tender Kisses
08. I'm Come'n Home
09. Let's Run Away Together
10. Queen Bee
11. (Untitled)

Kathy Crawford-lead vocals, backing vocals, piano (track 6)
Manuel Fernandez-all guitars, bass, drums, keyboards, harmonicam backing vocals, lead vocals (track 7)
Fernandez Children: Joshua, Alicia, Rebekah, David: backing vocals (track 5)

Kathy Crawford - s/t (1999) **[RE-UP]**


Exact Audio Copy V1.1 from 23. June 2015

EAC extraction logfile from 19. January 2017, 9:27

Kathy Crawford / Kathy Crawford

Used drive : TEAC DVD-ROM DV-28SW Adapter: 1 ID: 0

Read mode : Secure
Utilize accurate stream : Yes
Defeat audio cache : Yes
Make use of C2 pointers : No

Read offset correction : 6
Overread into Lead-In and Lead-Out : No
Fill up missing offset samples with silence : Yes
Delete leading and trailing silent blocks : No
Null samples used in CRC calculations : Yes
Used interface : Native Win32 interface for Win NT & 2000
Gap handling : Appended to previous track

Used output format : Internal WAV Routines
Sample format : 44.100 Hz; 16 Bit; Stereo


TOC of the extracted CD

Track | Start | Length | Start sector | End sector
––––––––––––––––––––––––––––-
1 | 0:00.00 | 3:57.66 | 0 | 17840
2 | 3:57.66 | 2:46.52 | 17841 | 30342
3 | 6:44.43 | 4:12.31 | 30343 | 49273
4 | 10:56.74 | 4:40.47 | 49274 | 70320
5 | 15:37.46 | 4:57.69 | 70321 | 92664
6 | 20:35.40 | 4:10.53 | 92665 | 111467
7 | 24:46.18 | 3:10.17 | 111468 | 125734
8 | 27:56.35 | 2:46.42 | 125735 | 138226
9 | 30:43.02 | 3:24.64 | 138227 | 153590
10 | 34:07.66 | 3:16.21 | 153591 | 168311
11 | 37:24.12 | 0:41.28 | 168312 | 171414


Track 1

Filename C:\My Documents\My FLAC\Kathy Crawford - s-t (1999) [FLAC]\01 - You're Still In My Heart.wav

Pre-gap length 0:00:02.00

Peak level 100.0 %
Extraction speed 2.8 X
Track quality 100.0 %
Test CRC 0C1D7CBD
Copy CRC 0C1D7CBD
Track not present in AccurateRip database
Copy OK

Track 2

Filename C:\My Documents\My FLAC\Kathy Crawford - s-t (1999) [FLAC]\02 - Don't Look Back.wav

Pre-gap length 0:00:02.00

Peak level 100.0 %
Extraction speed 2.9 X
Track quality 100.0 %
Test CRC 00298A0A
Copy CRC 00298A0A
Track not present in AccurateRip database
Copy OK

Track 3

Filename C:\My Documents\My FLAC\Kathy Crawford - s-t (1999) [FLAC]\03 - Love Is In The Air.wav

Pre-gap length 0:00:02.00

Peak level 100.0 %
Extraction speed 3.2 X
Track quality 100.0 %
Test CRC 21174B02
Copy CRC 21174B02
Track not present in AccurateRip database
Copy OK

Track 4

Filename C:\My Documents\My FLAC\Kathy Crawford - s-t (1999) [FLAC]\04 - Never Been.wav

Pre-gap length 0:00:02.00

Peak level 99.4 %
Extraction speed 3.6 X
Track quality 100.0 %
Test CRC 05AFA429
Copy CRC 05AFA429
Track not present in AccurateRip database
Copy OK

Track 5

Filename C:\My Documents\My FLAC\Kathy Crawford - s-t (1999) [FLAC]\05 - I Love This Land.wav

Pre-gap length 0:00:02.00

Peak level 100.0 %
Extraction speed 3.2 X
Track quality 100.0 %
Test CRC 678451A0
Copy CRC 678451A0
Track not present in AccurateRip database
Copy OK

Track 6

Filename C:\My Documents\My FLAC\Kathy Crawford - s-t (1999) [FLAC]\06 - Kenny's Song.wav

Pre-gap length 0:00:01.74

Peak level 100.0 %
Extraction speed 3.3 X
Track quality 100.0 %
Test CRC 94CEB9AB
Copy CRC 94CEB9AB
Track not present in AccurateRip database
Copy OK

Track 7

Filename C:\My Documents\My FLAC\Kathy Crawford - s-t (1999) [FLAC]\07 - Tender Kisses.wav

Pre-gap length 0:00:02.00

Peak level 100.0 %
Extraction speed 3.1 X
Track quality 99.9 %
Test CRC AEC582EA
Copy CRC AEC582EA
Track not present in AccurateRip database
Copy OK

Track 8

Filename C:\My Documents\My FLAC\Kathy Crawford - s-t (1999) [FLAC]\08 - I'm Come'n Home.wav

Pre-gap length 0:00:02.00

Peak level 100.0 %
Extraction speed 3.8 X
Track quality 100.0 %
Test CRC 801CB78D
Copy CRC 801CB78D
Track not present in AccurateRip database
Copy OK

Track 9

Filename C:\My Documents\My FLAC\Kathy Crawford - s-t (1999) [FLAC]\09 - Let's Run Away Together.wav

Pre-gap length 0:00:02.00

Peak level 83.1 %
Extraction speed 3.4 X
Track quality 99.9 %
Test CRC A0AB43CA
Copy CRC A0AB43CA
Track not present in AccurateRip database
Copy OK

Track 10

Filename C:\My Documents\My FLAC\Kathy Crawford - s-t (1999) [FLAC]\10 - Queen Bee.wav

Pre-gap length 0:00:01.73

Peak level 100.0 %
Extraction speed 4.4 X
Track quality 100.0 %
Test CRC 0D89B20E
Copy CRC 0D89B20E
Track not present in AccurateRip database
Copy OK

Track 11

Filename C:\My Documents\My FLAC\Kathy Crawford - s-t (1999) [FLAC]\11 - (Untitled).wav

Pre-gap length 0:00:02.02

Peak level 98.0 %
Extraction speed 2.7 X
Track quality 100.0 %
Test CRC 5139C7DC
Copy CRC 5139C7DC
Track not present in AccurateRip database
Copy OK


None of the tracks are present in the AccurateRip database

No errors occurred

End of status report

–– CUETools DB Plugin V2.1.6

[CTDB TOCID: E0TpbkdPxGBnfZJv.822DmLClO0-] disk not present in database
Submit result: E0TpbkdPxGBnfZJv.822DmLClO0- has been uploaded


==== Log checksum CD28B23FCAB44C2FA230B9CBFBB470B1F73F28EA27AF18313C673000E058181B ====


Kathy Crawford - s/t (1999) **[RE-UP]**