Subcategories

Karajan in Moscow - Vol. 2: Bach, Shostakovich

Posted By: waldstein
Karajan in Moscow - Vol. 2: Bach, Shostakovich

Karajan in Moscow Vol. 2 - Bach: Brandemburg concerto No. 1; Shostakovich: Symphony No. 10
Classical| 1CD | EAC V.099 prebeta 3 RIP | 351 Mb | FLAC+ M3U+LOG+MD5 No CUE | Full scans | Rapidshare links
Publisher: Melodya| Language: Russian, English

The second concert was devoted to Bach's Brandemburg Concerto No. 1 and Shostakovich’s Tenth Symphony. The orchestra’s commitment was astonishing. Mariss Jansons would recall: “They played at two hundred percent capacity. It was unbelievable”. Shostakovich joined Karajan and the orchestra on stage afterwards, obviously moved by the performance and reception he received. For Karajan, it was possibly the proudest moment of his life… To conductor who would to have been Shostakovich, these things mattered.
From Richard Osborne’s book: “Herbert von Karajan – A Life in Music”; Pimlico 1999.


Exact Audio Copy V0.99 prebeta 3 from 28. July 2007

EAC extraction logfile from 7. May 2009, 21:52

Berliner Philharmoniker · Herbert von Karajan / Karajan in Moscow Vol. 2

Used drive : HL-DT-STDVDRAM GSA-4167B Adapter: 3 ID: 0

Read mode : Secure
Utilize accurate stream : Yes
Defeat audio cache : No
Make use of C2 pointers : Yes

Read offset correction : 667
Overread into Lead-In and Lead-Out : No
Fill up missing offset samples with silence : Yes
Delete leading and trailing silent blocks : No
Null samples used in CRC calculations : Yes
Used interface : Installed external ASPI interface
Gap handling : Not detected, thus appended to previous track

Used output format : User Defined Encoder
Selected bitrate : 768 kBit/s
Quality : High
Add ID3 tag : No
Command line compressor : C:\Program Files\Exact Audio Copy\FLAC\FLAC.EXE
Additional command line options : -6 -V -T "ARTIST=%a" -T "TITLE=%t" -T "ALBUM=%g" -T "DATE=%y" -T "TRACKNUMBER=%n" -T "GENRE=%m" -T "COMMENT=%e" %s -o %d


TOC of the extracted CD

Track | Start | Length | Start sector | End sector
––––––––––––––––––––––––––––-
1 | 0:00.00 | 4:00.54 | 0 | 18053
2 | 4:00.54 | 4:32.67 | 18054 | 38520
3 | 8:33.46 | 4:28.51 | 38521 | 58671
4 | 13:02.22 | 9:02.50 | 58672 | 99371
5 | 22:04.72 | 23:13.36 | 99372 | 203882
6 | 45:18.33 | 4:08.52 | 203883 | 222534
7 | 49:27.10 | 12:09.08 | 222535 | 277217
8 | 61:36.18 | 13:51.43 | 277218 | 339585


Track 1

Filename L:\My Documents\My Music\Šostakovič\Karajan\01.Bach- Brandemburg Concerto No. 1 in F major, BWV 1046 - I. (Allegro).wav

Peak level 50.2 %
Track quality 100.0 %
Copy CRC 4644309D
Track not present in AccurateRip database
Copy OK

Track 2

Filename L:\My Documents\My Music\Šostakovič\Karajan\02.II. Adagio.wav

Peak level 29.6 %
Track quality 100.0 %
Copy CRC F6F64CCA
Track not present in AccurateRip database
Copy OK

Track 3

Filename L:\My Documents\My Music\Šostakovič\Karajan\03.III. Allegro.wav

Peak level 53.9 %
Track quality 99.9 %
Copy CRC 721E754E
Track not present in AccurateRip database
Copy OK

Track 4

Filename L:\My Documents\My Music\Šostakovič\Karajan\04.IV. Menuetto. Trio I. Pollaca. Trio II.wav

Peak level 63.1 %
Track quality 100.0 %
Copy CRC F04D2AFB
Track not present in AccurateRip database
Copy OK

Track 5

Filename L:\My Documents\My Music\Šostakovič\Karajan\05.Shostakovich- Symphony No. 10 in E minor, Op. 93 - I. Moderato.wav

Peak level 98.8 %
Track quality 99.9 %
Copy CRC 9DF1FFF2
Track not present in AccurateRip database
Copy OK

Track 6

Filename L:\My Documents\My Music\Šostakovič\Karajan\06.II. Allegro.wav

Peak level 98.8 %
Track quality 100.0 %
Copy CRC D53E2F71
Track not present in AccurateRip database
Copy OK

Track 7

Filename L:\My Documents\My Music\Šostakovič\Karajan\07.III. Allegretto.wav

Peak level 98.8 %
Track quality 100.0 %
Copy CRC 2A0E387B
Track not present in AccurateRip database
Copy OK

Track 8

Filename L:\My Documents\My Music\Šostakovič\Karajan\08.IV. Andante - Allegro.wav

Peak level 98.8 %
Track quality 99.9 %
Copy CRC A4569C41
Track not present in AccurateRip database
Copy OK


None of the tracks are present in the AccurateRip database

No errors occurred

End of status report


Download links (RS):
http://rapidshare.com/files/230599706/DShTnthsmHK.part1.rar
http://rapidshare.com/files/230608048/DShTnthsmHK.part2.rar
http://rapidshare.com/files/230619782/DShTnthsmHK.part3.rar
http://rapidshare.com/files/230590525/DShTnthsmHK.part4.rar