Tags
Language
Tags

Karl Richter, Munchener Bach-Chor und Orchester - Johann Sebastian Bach: Weihnachts-Oratorium (1995)

Posted By: ArlegZ
Karl Richter, Munchener Bach-Chor und Orchester - Johann Sebastian Bach: Weihnachts-Oratorium (1995)

Karl Richter, Münchener Bach-Chor und Orchester - Johann Sebastian Bach: Weihnachts-Oratorium (1995)
EAC | FLAC | Image (Cue & Log) ~ 861 Mb | Total time: 61:29+53:19+54:38 | Scans included
Classical | Label: Teldec | # 4509-97902-2 | Recorded: 1955

Wie ein Monolith ragt der Dirigent, Organist und Cembalist Karl Richter in der Geschichte der evangelischen Kirchenmusik und der Bach-Interpretation der zweiten Hälfte des 20. Jahrhunderts auf. Als junger Mann beschloss Karl Richter, inspiriert von der mitteldeutschen Kantorentradition seiner Heimat, dem frühen Eindruck des Klangs der sächsischen Orgeln und der Werke Johann Sebastian Bachs, sein Leben in den Dienst an der Musica sacra zu stellen. In seinem kurzen Leben, das nur 54 Jahre währte, setzte er diesen Vorsatz in den Kirchendiensten an der Thomas-kirche zu Leipzig, an der Markuskirche zu München, in Konzerten, Schallplattenaufnahmen für Teldec und Deutsche Grammophon und als Lehrer an der Münchner Hochschule für Musik, in einer Lebensleistung von fast unüber-schaubarem Ausmaß ins Werk. Es gelang ihm dabei, internationale Maßstäbe zu setzen.

Performer:
Tenor [Evangelist]: Gert Lutze
Soprano: Cloë Owen
Alto: Hertha Töpper
Basses: Horst Günther & Kieth Engen
Münchener Bach-Chor
Münchener Bach-Orchester
Conductor: Karl Richter

Track List:
CD1:
01. Teil I: Am Weihnachtsfest: Jauchzet, frohlocket!
02. Teil I: Am Weihnachtsfest: Es begab sich aber zu der Zeit
03. Teil I: Am Weihnachtsfest: Nun wird mein liebster Bräutigam
04. Teil I: Am Weihnachtsfest: Bereite dich, Zion
05. Teil I: Am Weihnachtsfest: Wie soll ich dich empfangen
06. Teil I: Am Weihnachtsfest: Und sie gebar ihren ersten Sohn
07. Teil I: Am Weihnachtsfest: Er ist auf Erden kommen arm
08. Teil I: Am Weihnachtsfest: Großer Herr, o starker König
09. Teil I: Am Weihnachtsfest: Ach, mein herzliebes Jesulein
10. Teil II: Am zweiten Weihnachtsfeiertag: Sinfonia
11. Teil II: Am zweiten Weihnachtsfeiertag: Und es waren Hirten in derselben Gegend
12. Teil II: Am zweiten Weihnachtsfeiertag: Brich an, o schönes Morgenlicht
13. Teil II: Am zweiten Weihnachtsfeiertag: Und der Engel sprach zu ihnen
14. Teil II: Am zweiten Weihnachtsfeiertag: Was Gott dem Abraham verheißen
15. Teil II: Am zweiten Weihnachtsfeiertag: Frohe Hirten, eilt, ach eilet
16. Teil II: Am zweiten Weihnachtsfeiertag: Und das habt zum Zeichen
17. Teil II: Am zweiten Weihnachtsfeiertag: Schaut hin! Dort liegt im finstern Stall
18. Teil II: Am zweiten Weihnachtsfeiertag: So geht denn hin, ihr Hirten geht
19. Teil II: Am zweiten Weihnachtsfeiertag: Schlafe, mein Liebster, genieße der Ruh
20. Teil II: Am zweiten Weihnachtsfeiertag: Und alsobald war da bei dem Engel
21. Teil II: Am zweiten Weihnachtsfeiertag: Ehre sei Gott in der Höhe
22. Teil II: Am zweiten Weihnachtsfeiertag: So recht, ihr Engel, jauchzt und singet
23. Teil II: Am zweiten Weihnachtsfeiertag: Wir singen dir in deinem Heer
CD2:
01. Teil III: Am dritten Weihnachtsfeiertag: Herrscher des Himmels, erhöre das Lallen
02. Teil III: Am dritten Weihnachtsfeiertag: Und da die Engel von ihnen gen Himmel fuhren
03. Teil III: Am dritten Weihnachtsfeiertag: Lasset uns nun gehen
04. Teil III: Am dritten Weihnachtsfeiertag: Er hat sein Volk getröst'
05. Teil III: Am dritten Weihnachtsfeiertag: Dies hat er alles uns getan
06. Teil III: Am dritten Weihnachtsfeiertag: Herr, dein Mitleid, dein Erbarmen
07. Teil III: Am dritten Weihnachtsfeiertag: Und sie kamen eilend
08. Teil III: Am dritten Weihnachtsfeiertag: Schließe, mein Herze, dies selige Wunder
09. Teil III: Am dritten Weihnachtsfeiertag: Ja, ja! Mein Herz soll es bewahren
10. Teil III: Am dritten Weihnachtsfeiertag: Ich will dich mit Fleiß bewahren
11. Teil III: Am dritten Weihnachtsfeiertag: Und die Hirten kehrten wieder um
12. Teil III: Am dritten Weihnachtsfeiertag: Seid froh, dieweil, daß euer Heil
13. Teil III: Am dritten Weihnachtsfeiertag: Herrscher des Himmels, erhöre das Lallen
14. Teil IV: Am Fest der Beschneidung Christi: Fallt mit Danken, fallt mit Loben
15. Teil IV: Am Fest der Beschneidung Christi: Und da acht Tage um waren
16. Teil IV: Am Fest der Beschneidung Christi: Immanuel, o süßes Wort
17. Teil IV: Am Fest der Beschneidung Christi: Flößt, mein Heiland, flößt dein Name
18. Teil IV: Am Fest der Beschneidung Christi: Wohlan! Dein Name soll allein
19. Teil IV: Am Fest der Beschneidung Christi: Ich will nur dir zu Ehren leben
20. Teil IV: Am Fest der Beschneidung Christi: Jesus richte mein Beginnen
CD3:
01. Teil V: Am Sonntag nach Neujahr: Ehre sei dir, Gott, gesungen
02. Teil V: Am Sonntag nach Neujahr: Da Jesus geboren war
03. Teil V: Am Sonntag nach Neujahr: Wo ist der neugeborne König
04. Teil V: Am Sonntag nach Neujahr: Dein Glanz all' Finsternis verzehrt
05. Teil V: Am Sonntag nach Neujahr: Erleucht' auch meine finstre Sinnen
06. Teil V: Am Sonntag nach Neujahr: Da das der König Herodes hörte
07. Teil V: Am Sonntag nach Neujahr: Warum wollt ihr erschrecken
08. Teil V: Am Sonntag nach Neujahr: Und ließ versammlen alle Hohenpriester
09. Teil V: Am Sonntag nach Neujahr: Ach! Wann wird die Zeit erscheinen
10. Teil V: Am Sonntag nach Neujahr: Mein Liebster herrschet schon
11. Teil V: Am Sonntag nach Neujahr: Zwar ist solche Herzensstube
12. Teil VI: Am Epiphaniasfest: Herr, wenn die stolzen Feinde schnauben
13. Teil VI: Am Epiphaniasfest: Da berief Herodes die Weisen heimlich
14. Teil VI: Am Epiphaniasfest: Du Falscher, suche nur den Herrn zu fällen
15. Teil VI: Am Epiphaniasfest: Nur ein Wink von seinen Händen
16. Teil VI: Am Epiphaniasfest: Als sie nun den König gehöret hatten
17. Teil VI: Am Epiphaniasfest: Ich steh' an deiner Krippen hier
18. Teil VI: Am Epiphaniasfest: Und Gott befahl ihnen im Traum
19. Teil VI: Am Epiphaniasfest: So geht! genug, mein Schatz
20. Teil VI: Am Epiphaniasfest: Nun mögt ihr stolzen Feinde schrecken
21. Teil VI: Am Epiphaniasfest: Was will der Hölle Schrecken nun
22. Teil VI: Am Epiphaniasfest: Nun seid ihr wohlgerochen


Exact Audio Copy V1.3 from 2. September 2016

EAC extraction logfile from 14. December 2018, 16:24

Gert Lutze, Cloe Owen, Hertha Topper, Horst Gunter, Kieth Engen; Karl Richter / Bach - Weihnachtsoratorium (Christmas Oratorio) (Disc 1)

Used drive : ATAPI iHAS124 F Adapter: 1 ID: 0

Read mode : Secure
Utilize accurate stream : Yes
Defeat audio cache : Yes
Make use of C2 pointers : No

Read offset correction : 6
Overread into Lead-In and Lead-Out : No
Fill up missing offset samples with silence : Yes
Delete leading and trailing silent blocks : No
Null samples used in CRC calculations : Yes
Used interface : Native Win32 interface for Win NT & 2000

Used output format : User Defined Encoder
Selected bitrate : 1024 kBit/s
Quality : High
Add ID3 tag : No
Command line compressor : C:\Program Files (x86)\Exact Audio Copy\FLAC\FLAC.EXE
Additional command line options : -6 -V -T "ARTIST=%artist%" -T "TITLE=%title%" -T "ALBUM=%albumtitle%" -T "DATE=%year%" -T "TRACKNUMBER=%tracknr%" -T "GENRE=%genre%" -T "COMMENT=%comment%" -T "BAND=%albuminterpret%" -T "ALBUMARTIST=%albuminterpret%" -T "COMPOSER=%composer%" %haslyrics%–tag-from-file=LYRICS="%lyricsfile%"%haslyrics% -T "DISCNUMBER=%cdnumber%" -T "TOTALDISCS=%totalcds%" -T "TOTALTRACKS=%numtracks%" %hascover%–picture="%coverfile%"%hascover% %source% -o %dest%


TOC of the extracted CD

Track | Start | Length | Start sector | End sector
––––––––––––––––––––––––––––-
1 | 0:00.00 | 8:55.42 | 0 | 40166
2 | 8:55.42 | 1:35.05 | 40167 | 47296
3 | 10:30.47 | 1:21.70 | 47297 | 53441
4 | 11:52.42 | 4:16.73 | 53442 | 72714
5 | 16:09.40 | 1:36.40 | 72715 | 79954
6 | 17:46.05 | 0:30.07 | 79955 | 82211
7 | 18:16.12 | 3:54.28 | 82212 | 99789
8 | 22:10.40 | 5:37.60 | 99790 | 125124
9 | 27:48.25 | 1:50.15 | 125125 | 133389
10 | 29:38.40 | 7:54.45 | 133390 | 168984
11 | 37:33.10 | 0:57.35 | 168985 | 173294
12 | 38:30.45 | 1:19.50 | 173295 | 179269
13 | 39:50.20 | 1:11.15 | 179270 | 184609
14 | 41:01.35 | 1:02.27 | 184610 | 189286
15 | 42:03.62 | 4:01.23 | 189287 | 207384
16 | 46:05.10 | 0:30.27 | 207385 | 209661
17 | 46:35.37 | 0:47.68 | 209662 | 213254
18 | 47:23.30 | 1:02.67 | 213255 | 217971
19 | 48:26.22 | 6:59.05 | 217972 | 249401
20 | 55:25.27 | 0:19.43 | 249402 | 250869
21 | 55:44.70 | 3:27.22 | 250870 | 266416
22 | 59:12.17 | 0:31.08 | 266417 | 268749
23 | 59:43.25 | 1:45.67 | 268750 | 276691


Range status and errors

Selected range

Filename C:\EACRip\NOEL\Bach - Weihnachtsoratorium (Christmas Oratorio) (Karl Richter) (1995 [1955])\CD1\Bach - Weihnachtsoratorium (Christmas Oratorio) (Disc 1) - Karl Richter.wav

Peak level 90.4 %
Extraction speed 9.3 X
Range quality 100.0 %
Test CRC D66C28C7
Copy CRC D66C28C7
Copy OK

No errors occurred


AccurateRip summary

Track 1 accurately ripped (confidence 2) [B5040129] (AR v2)
Track 2 accurately ripped (confidence 2) [BD46EBD6] (AR v2)
Track 3 accurately ripped (confidence 2) [CC9DBC18] (AR v2)
Track 4 accurately ripped (confidence 2) [8674F432] (AR v2)
Track 5 accurately ripped (confidence 2) [B33CE803] (AR v2)
Track 6 accurately ripped (confidence 2) [58D20620] (AR v2)
Track 7 accurately ripped (confidence 2) [12C1EA1A] (AR v2)
Track 8 accurately ripped (confidence 2) [21F78DA3] (AR v2)
Track 9 accurately ripped (confidence 2) [C8DD7AEF] (AR v2)
Track 10 accurately ripped (confidence 2) [190395C8] (AR v2)
Track 11 accurately ripped (confidence 2) [E99FFB53] (AR v2)
Track 12 accurately ripped (confidence 2) [212DF497] (AR v2)
Track 13 accurately ripped (confidence 2) [D7D9A974] (AR v2)
Track 14 accurately ripped (confidence 2) [B385FD57] (AR v2)
Track 15 accurately ripped (confidence 2) [7E90FF23] (AR v2)
Track 16 accurately ripped (confidence 2) [C896C1DD] (AR v2)
Track 17 accurately ripped (confidence 2) [3788DC13] (AR v2)
Track 18 accurately ripped (confidence 2) [94E99695] (AR v2)
Track 19 accurately ripped (confidence 2) [9DC36ECC] (AR v2)
Track 20 accurately ripped (confidence 2) [360788AB] (AR v2)
Track 21 accurately ripped (confidence 2) [70FEB598] (AR v2)
Track 22 accurately ripped (confidence 2) [4C9C7AD4] (AR v2)
Track 23 accurately ripped (confidence 2) [7D235926] (AR v2)

All tracks accurately ripped

End of status report

–– CUETools DB Plugin V2.1.6

[CTDB TOCID: xPchIT0cOkj2RaNiJqIRNUUuOKM-] found
Submit result: xPchIT0cOkj2RaNiJqIRNUUuOKM- has been confirmed
Track | CTDB Status
1 | (5/5) Accurately ripped
2 | (5/5) Accurately ripped
3 | (5/5) Accurately ripped
4 | (5/5) Accurately ripped
5 | (5/5) Accurately ripped
6 | (5/5) Accurately ripped
7 | (5/5) Accurately ripped
8 | (5/5) Accurately ripped
9 | (5/5) Accurately ripped
10 | (5/5) Accurately ripped
11 | (5/5) Accurately ripped
12 | (5/5) Accurately ripped
13 | (5/5) Accurately ripped
14 | (5/5) Accurately ripped
15 | (5/5) Accurately ripped
16 | (5/5) Accurately ripped
17 | (5/5) Accurately ripped
18 | (5/5) Accurately ripped
19 | (5/5) Accurately ripped
20 | (5/5) Accurately ripped
21 | (5/5) Accurately ripped
22 | (5/5) Accurately ripped
23 | (5/5) Accurately ripped


==== Log checksum 4BEE293CC10E027A61CC348CEF62EEC1A50F803987DA1C514ABEDF573AA0FFB9 ====


Exact Audio Copy V1.3 from 2. September 2016

EAC extraction logfile from 14. December 2018, 16:57

Gert Lutze, Cloe Owen, Hertha Topper, Horst Gunter, Kieth Engen; Karl Richter / Bach - Weihnachtsoratorium (Christmas Oratorio) (Disc 2)

Used drive : ATAPI iHAS124 F Adapter: 1 ID: 0

Read mode : Secure
Utilize accurate stream : Yes
Defeat audio cache : Yes
Make use of C2 pointers : No

Read offset correction : 6
Overread into Lead-In and Lead-Out : No
Fill up missing offset samples with silence : Yes
Delete leading and trailing silent blocks : No
Null samples used in CRC calculations : Yes
Used interface : Native Win32 interface for Win NT & 2000

Used output format : User Defined Encoder
Selected bitrate : 1024 kBit/s
Quality : High
Add ID3 tag : No
Command line compressor : C:\Program Files (x86)\Exact Audio Copy\FLAC\FLAC.EXE
Additional command line options : -6 -V -T "ARTIST=%artist%" -T "TITLE=%title%" -T "ALBUM=%albumtitle%" -T "DATE=%year%" -T "TRACKNUMBER=%tracknr%" -T "GENRE=%genre%" -T "COMMENT=%comment%" -T "BAND=%albuminterpret%" -T "ALBUMARTIST=%albuminterpret%" -T "COMPOSER=%composer%" %haslyrics%–tag-from-file=LYRICS="%lyricsfile%"%haslyrics% -T "DISCNUMBER=%cdnumber%" -T "TOTALDISCS=%totalcds%" -T "TOTALTRACKS=%numtracks%" %hascover%–picture="%coverfile%"%hascover% %source% -o %dest%


TOC of the extracted CD

Track | Start | Length | Start sector | End sector
––––––––––––––––––––––––––––-
1 | 0:00.00 | 2:21.00 | 0 | 10574
2 | 2:21.00 | 0:12.65 | 10575 | 11539
3 | 2:33.65 | 1:00.17 | 11540 | 16056
4 | 3:34.07 | 0:48.63 | 16057 | 19719
5 | 4:22.70 | 0:51.42 | 19720 | 23586
6 | 5:14.37 | 6:23.05 | 23587 | 52316
7 | 11:37.42 | 1:43.68 | 52317 | 60109
8 | 13:21.35 | 6:19.00 | 60110 | 88534
9 | 19:40.35 | 0:30.67 | 88535 | 90851
10 | 20:11.27 | 1:03.48 | 90852 | 95624
11 | 21:15.00 | 0:35.25 | 95625 | 98274
12 | 21:50.25 | 0:52.67 | 98275 | 102241
13 | 22:43.17 | 2:32.58 | 102242 | 113699
14 | 25:16.00 | 6:20.57 | 113700 | 142256
15 | 31:36.57 | 0:46.55 | 142257 | 145761
16 | 32:23.37 | 3:26.35 | 145762 | 161246
17 | 35:49.72 | 6:13.40 | 161247 | 189261
18 | 42:03.37 | 1:59.45 | 189262 | 198231
19 | 44:03.07 | 5:47.55 | 198232 | 224311
20 | 49:50.62 | 3:27.65 | 224312 | 239901


Range status and errors

Selected range

Filename C:\EACRip\NOEL\Bach - Weihnachtsoratorium (Christmas Oratorio) (Karl Richter) (1995 [1955])\CD2\Bach - Weihnachtsoratorium (Christmas Oratorio) (Disc 2) - Karl Richter.wav

Peak level 99.7 %
Extraction speed 8.3 X
Range quality 100.0 %
Test CRC 177A8C01
Copy CRC 177A8C01
Copy OK

No errors occurred


AccurateRip summary

Track 1 accurately ripped (confidence 2) [CC865608] (AR v2)
Track 2 accurately ripped (confidence 2) [90C0AF4A] (AR v2)
Track 3 accurately ripped (confidence 2) [A8E9F732] (AR v2)
Track 4 accurately ripped (confidence 2) [3F466526] (AR v2)
Track 5 accurately ripped (confidence 2) [343556DA] (AR v2)
Track 6 accurately ripped (confidence 2) [C4618D0F] (AR v2)
Track 7 accurately ripped (confidence 2) [428E1DD4] (AR v2)
Track 8 accurately ripped (confidence 2) [1EB1CC45] (AR v2)
Track 9 accurately ripped (confidence 2) [74126158] (AR v2)
Track 10 accurately ripped (confidence 2) [8D6E42B2] (AR v2)
Track 11 accurately ripped (confidence 2) [918A83AE] (AR v2)
Track 12 accurately ripped (confidence 2) [B75D31BA] (AR v2)
Track 13 accurately ripped (confidence 2) [7F95669F] (AR v2)
Track 14 accurately ripped (confidence 2) [83622E19] (AR v2)
Track 15 accurately ripped (confidence 2) [C5CB3B91] (AR v2)
Track 16 accurately ripped (confidence 2) [081679CD] (AR v2)
Track 17 accurately ripped (confidence 2) [04459C7D] (AR v2)
Track 18 accurately ripped (confidence 2) [8F747406] (AR v2)
Track 19 accurately ripped (confidence 2) [EDA140AB] (AR v2)
Track 20 accurately ripped (confidence 2) [BC479D4B] (AR v2)

All tracks accurately ripped

End of status report

–– CUETools DB Plugin V2.1.6

[CTDB TOCID: oenfGxfY6lbs83RyY.z9zVAwctw-] found
Submit result: oenfGxfY6lbs83RyY.z9zVAwctw- has been confirmed
Track | CTDB Status
1 | (2/2) Accurately ripped
2 | (2/2) Accurately ripped
3 | (2/2) Accurately ripped
4 | (2/2) Accurately ripped
5 | (2/2) Accurately ripped
6 | (2/2) Accurately ripped
7 | (2/2) Accurately ripped
8 | (2/2) Accurately ripped
9 | (2/2) Accurately ripped
10 | (2/2) Accurately ripped
11 | (2/2) Accurately ripped
12 | (2/2) Accurately ripped
13 | (2/2) Accurately ripped
14 | (2/2) Accurately ripped
15 | (2/2) Accurately ripped
16 | (2/2) Accurately ripped
17 | (2/2) Accurately ripped
18 | (2/2) Accurately ripped
19 | (2/2) Accurately ripped
20 | (2/2) Accurately ripped


==== Log checksum 16E20BADB9F17423E8FFF4D714014FDFA8FE1031203D09A8DE6FECEE6685CDCE ====


Exact Audio Copy V1.3 from 2. September 2016

EAC extraction logfile from 14. December 2018, 17:21

Gert Lutze, Cloe Owen, Hertha Topper, Horst Gunter, Kieth Engen; Karl Richter / Bach - Weihnachtsoratorium (Christmas Oratorio) (Disc 3)

Used drive : ATAPI iHAS124 F Adapter: 1 ID: 0

Read mode : Secure
Utilize accurate stream : Yes
Defeat audio cache : Yes
Make use of C2 pointers : No

Read offset correction : 6
Overread into Lead-In and Lead-Out : No
Fill up missing offset samples with silence : Yes
Delete leading and trailing silent blocks : No
Null samples used in CRC calculations : Yes
Used interface : Native Win32 interface for Win NT & 2000

Used output format : User Defined Encoder
Selected bitrate : 1024 kBit/s
Quality : High
Add ID3 tag : No
Command line compressor : C:\Program Files (x86)\Exact Audio Copy\FLAC\FLAC.EXE
Additional command line options : -6 -V -T "ARTIST=%artist%" -T "TITLE=%title%" -T "ALBUM=%albumtitle%" -T "DATE=%year%" -T "TRACKNUMBER=%tracknr%" -T "GENRE=%genre%" -T "COMMENT=%comment%" -T "BAND=%albuminterpret%" -T "ALBUMARTIST=%albuminterpret%" -T "COMPOSER=%composer%" %haslyrics%–tag-from-file=LYRICS="%lyricsfile%"%haslyrics% -T "DISCNUMBER=%cdnumber%" -T "TOTALDISCS=%totalcds%" -T "TOTALTRACKS=%numtracks%" %hascover%–picture="%coverfile%"%hascover% %source% -o %dest%


TOC of the extracted CD

Track | Start | Length | Start sector | End sector
––––––––––––––––––––––––––––-
1 | 0:00.00 | 7:42.37 | 0 | 34686
2 | 7:42.37 | 0:32.43 | 34687 | 37129
3 | 8:15.05 | 3:08.57 | 37130 | 51286
4 | 11:23.62 | 0:53.53 | 51287 | 55314
5 | 12:17.40 | 4:38.42 | 55315 | 76206
6 | 16:56.07 | 0:14.50 | 76207 | 77306
7 | 17:10.57 | 0:43.68 | 77307 | 80599
8 | 17:54.50 | 1:34.17 | 80600 | 87666
9 | 19:28.67 | 5:52.58 | 87667 | 114124
10 | 25:21.50 | 0:36.47 | 114125 | 116871
11 | 25:58.22 | 0:56.50 | 116872 | 121121
12 | 26:54.72 | 5:26.28 | 121122 | 145599
13 | 32:21.25 | 1:02.62 | 145600 | 150311
14 | 33:24.12 | 1:03.38 | 150312 | 155074
15 | 34:27.50 | 4:12.57 | 155075 | 174031
16 | 38:40.32 | 1:29.58 | 174032 | 180764
17 | 40:10.15 | 1:28.60 | 180765 | 187424
18 | 41:39.00 | 0:29.42 | 187425 | 189641
19 | 42:08.42 | 2:21.53 | 189642 | 200269
20 | 44:30.20 | 5:35.07 | 200270 | 225401
21 | 50:05.27 | 0:44.00 | 225402 | 228701
22 | 50:49.27 | 3:48.53 | 228702 | 245854


Range status and errors

Selected range

Filename C:\EACRip\NOEL\Bach - Weihnachtsoratorium (Christmas Oratorio) (Karl Richter) (1995 [1955])\CD3\Bach - Weihnachtsoratorium (Christmas Oratorio) (Disc 3) - Karl Richter.wav

Peak level 98.8 %
Extraction speed 8.3 X
Range quality 100.0 %
Test CRC 3B434DF7
Copy CRC 3B434DF7
Copy OK

No errors occurred


AccurateRip summary

Track 1 accurately ripped (confidence 2) [BD471F5F] (AR v2)
Track 2 accurately ripped (confidence 2) [FEEEB67F] (AR v2)
Track 3 accurately ripped (confidence 2) [C8CB3A4B] (AR v2)
Track 4 accurately ripped (confidence 2) [ECA0FEC8] (AR v2)
Track 5 accurately ripped (confidence 2) [E0036D8B] (AR v2)
Track 6 accurately ripped (confidence 2) [D6FEDEE1] (AR v2)
Track 7 accurately ripped (confidence 2) [F3D0CB81] (AR v2)
Track 8 accurately ripped (confidence 2) [DF29043E] (AR v2)
Track 9 accurately ripped (confidence 2) [CA925300] (AR v2)
Track 10 accurately ripped (confidence 2) [1223BCD8] (AR v2)
Track 11 accurately ripped (confidence 2) [1D99E1ED] (AR v2)
Track 12 accurately ripped (confidence 2) [BE6EB174] (AR v2)
Track 13 accurately ripped (confidence 2) [0BEED881] (AR v2)
Track 14 accurately ripped (confidence 2) [AA58382C] (AR v2)
Track 15 accurately ripped (confidence 2) [02177550] (AR v2)
Track 16 accurately ripped (confidence 2) [6CDC1E44] (AR v2)
Track 17 accurately ripped (confidence 2) [6BF91C9B] (AR v2)
Track 18 accurately ripped (confidence 2) [AB5D7BBC] (AR v2)
Track 19 accurately ripped (confidence 2) [42B3E5A0] (AR v2)
Track 20 accurately ripped (confidence 2) [2E9B279E] (AR v2)
Track 21 accurately ripped (confidence 2) [5ED43594] (AR v2)
Track 22 accurately ripped (confidence 2) [14271DAD] (AR v2)

All tracks accurately ripped

End of status report

–– CUETools DB Plugin V2.1.6

[CTDB TOCID: twHHeh_GJKwz7HlJmpGaYU_iFbA-] found
Submit result: twHHeh_GJKwz7HlJmpGaYU_iFbA- has been confirmed
Track | CTDB Status
1 | (5/5) Accurately ripped
2 | (5/5) Accurately ripped
3 | (5/5) Accurately ripped
4 | (5/5) Accurately ripped
5 | (5/5) Accurately ripped
6 | (5/5) Accurately ripped
7 | (5/5) Accurately ripped
8 | (5/5) Accurately ripped
9 | (5/5) Accurately ripped
10 | (5/5) Accurately ripped
11 | (5/5) Accurately ripped
12 | (5/5) Accurately ripped
13 | (5/5) Accurately ripped
14 | (5/5) Accurately ripped
15 | (5/5) Accurately ripped
16 | (5/5) Accurately ripped
17 | (5/5) Accurately ripped
18 | (5/5) Accurately ripped
19 | (5/5) Accurately ripped
20 | (5/5) Accurately ripped
21 | (5/5) Accurately ripped
22 | (5/5) Accurately ripped


==== Log checksum EE33259072E430F29424F1D0500FEB73B1600841A4D306602094172F7EBF2A0F ====

Karl Richter, Munchener Bach-Chor und Orchester - Johann Sebastian Bach: Weihnachts-Oratorium (1995)

Thanks to the original releaser