Tags
Language
Tags

Katatonia - The Great Cold Distance (2006) [Reissue 2009]

Posted By: gribovar
Katatonia - The Great Cold Distance (2006) [Reissue 2009]

Katatonia - The Great Cold Distance (2006) [Reissue 2009]
EAC Rip | FLAC (image+.cue+log) - 464 MB | MP3 CBR 320 kbps (LAME 3.93) - 143 MB | Covers - 20 MB
Genre: Progressive Metal | RAR 3% Rec. | Label: Peaceville Records (CDVILED264X)

Coming three full years after 2003's Viva Emptiness, The Great Cold Distance continues the trend toward the mainstream that Katatonia began with that album. Singer Jonas Renske - who apparently lost his ability to do the now-clichéd Cookie Monster vocals some years ago due to medical problems - has refined his voice into a much smoother and, surprisingly, more powerful instrument that's capable of greater emotional shadings. Similarly, this album forsakes the blastbeats and hyperspeed riffing for a more dynamic sound that makes smart use of slow and quiet passages. They're still heavy: "Deliberation" and "Leaders" are as brutal as anything on the band's career high point, Last Fair Deal Gone Down. But that heaviness is set off by gems like the surprisingly restrained "In the White," a powerful and heartfelt song that's among the band's finest, and that sonic variety makes The Great Cold Distance a stronger, more compelling listen than a more bludgeoning effort would be.

Tracklist:
01. Leaders
02. Deliberation
03. Soil's Song
04. My Twin
05. Consternation
06. Follower
07. Rusted
08. Increase
09. July
10. In The White
11. The Itch
12. Journey Through Pressure
13. Displaced (Bonus track)
14. Dissolving Bonds (Bonus track)

Total time: 01:00:47

Exact Audio Copy V0.99 prebeta 5 from 4. May 2009

EAC extraction logfile from 15. June 2010, 21:38

Katatonia / The Great Cold Distance

Used drive : HL-DT-STDVD-RAM GSA-H55L Adapter: 1 ID: 1

Read mode : Secure
Utilize accurate stream : Yes
Defeat audio cache : Yes
Make use of C2 pointers : No

Read offset correction : 102
Overread into Lead-In and Lead-Out : No
Fill up missing offset samples with silence : Yes
Delete leading and trailing silent blocks : No
Null samples used in CRC calculations : Yes
Used interface : Native Win32 interface for Win NT & 2000

Used output format : Internal WAV Routines
Sample format : 44.100 Hz; 16 Bit; Stereo


TOC of the extracted CD

Track | Start | Length | Start sector | End sector
––––––––––––––––––––––––––––-
1 | 0:00.00 | 4:20.68 | 0 | 19567
2 | 4:20.68 | 3:59.44 | 19568 | 37536
3 | 8:20.37 | 4:12.16 | 37537 | 56452
4 | 12:32.53 | 3:41.05 | 56453 | 73032
5 | 16:13.58 | 3:50.49 | 73033 | 90331
6 | 20:04.32 | 4:45.45 | 90332 | 111751
7 | 24:50.02 | 4:21.06 | 111752 | 131332
8 | 29:11.08 | 4:20.01 | 131333 | 150833
9 | 33:31.09 | 4:45.23 | 150834 | 172231
10 | 38:16.32 | 4:53.44 | 172232 | 194250
11 | 43:10.01 | 4:20.33 | 194251 | 213783
12 | 47:30.34 | 4:17.17 | 213784 | 233075
13 | 51:47.51 | 5:16.32 | 233076 | 256807
14 | 57:04.08 | 3:43.26 | 256808 | 273558


Range status and errors

Selected range

Filename D:\Katatonia - The Great Cold Distance.wav

Peak level 100.0 %
Range quality 99.9 %
Copy CRC 82CE46B7
Copy OK

No errors occurred


AccurateRip summary

Track 1 accurately ripped (confidence 10) [5FEDC264]
Track 2 accurately ripped (confidence 10) [584E83CC]
Track 3 accurately ripped (confidence 10) [D86BA0C8]
Track 4 accurately ripped (confidence 10) [03612C74]
Track 5 accurately ripped (confidence 10) [FB7D9087]
Track 6 accurately ripped (confidence 10) [4F0EC871]
Track 7 accurately ripped (confidence 10) [5885C47A]
Track 8 accurately ripped (confidence 10) [2101BA0D]
Track 9 accurately ripped (confidence 10) [3838E1C1]
Track 10 accurately ripped (confidence 9) [A31D8B3F]
Track 11 accurately ripped (confidence 10) [061B87A2]
Track 12 accurately ripped (confidence 10) [2CDAED9C]
Track 13 accurately ripped (confidence 9) [C9478274]
Track 14 accurately ripped (confidence 10) [544990D8]

All tracks accurately ripped

End of status report

[CUETools log; Date: 30.11.2021 20:13:19; Version: 2.1.4]
[CTDB TOCID: U4MnJd8IFCdsmLRAOyKwL7X2rT4-] found.
Track | CTDB Status
1 | (185/187) Accurately ripped
2 | (186/187) Accurately ripped
3 | (186/187) Accurately ripped
4 | (186/187) Accurately ripped
5 | (186/187) Accurately ripped
6 | (185/187) Accurately ripped
7 | (186/187) Accurately ripped
8 | (185/187) Accurately ripped
9 | (185/187) Accurately ripped
10 | (186/187) Accurately ripped
11 | (186/187) Accurately ripped
12 | (187/187) Accurately ripped
13 | (186/187) Accurately ripped
14 | (185/187) Accurately ripped
[AccurateRip ID: 001ebd58-014a05a5-bb0e3f0e] found.
Track [ CRC | V2 ] Status
01 [5fedc264|defbda34] (030+052/118) Accurately ripped
02 [584e83cc|011fcbbf] (030+051/116) Accurately ripped
03 [d86ba0c8|d39d074d] (030+052/117) Accurately ripped
04 [03612c74|791c61a0] (030+051/116) Accurately ripped
05 [fb7d9087|f4f8f2ef] (030+050/115) Accurately ripped
06 [4f0ec871|cc8fd4a0] (030+051/116) Accurately ripped
07 [5885c47a|63c4663d] (030+051/116) Accurately ripped
08 [2101ba0d|acba5181] (030+051/116) Accurately ripped
09 [3838e1c1|01177065] (030+051/116) Accurately ripped
10 [a31d8b3f|2e7814a7] (029+050/114) Accurately ripped
11 [061b87a2|72793772] (030+051/116) Accurately ripped
12 [2cdaed9c|68ea1678] (030+050/115) Accurately ripped
13 [c9478274|c6d8f2eb] (029+050/114) Accurately ripped
14 [544990d8|753c04e3] (029+049/112) Accurately ripped
Offsetted by 30:
01 [2a54f311] (017/118) Accurately ripped
02 [ab9ea083] (016/116) Accurately ripped
03 [0840c229] (016/117) Accurately ripped
04 [be08e990] (016/116) Accurately ripped
05 [f3e0e99b] (016/115) Accurately ripped
06 [35b6b06e] (016/116) Accurately ripped
07 [776a2e90] (016/116) Accurately ripped
08 [cc0b9e0f] (016/116) Accurately ripped
09 [a774825c] (016/116) Accurately ripped
10 [5b321256] (016/114) Accurately ripped
11 [fcebcd2a] (016/116) Accurately ripped
12 [75b54d73] (016/115) Accurately ripped
13 [71fa7d43] (016/114) Accurately ripped
14 [74495ba7] (015/112) Accurately ripped
Offsetted by 36:
01 [4a1f9e8a] (000/118) No match (V2 was not tested)
02 [db6f5aa0] (000/116) No match (V2 was not tested)
03 [f961c5ac] (000/117) No match (V2 was not tested)
04 [634dd1ac] (000/116) No match (V2 was not tested)
05 [af80b92b] (000/115) No match (V2 was not tested)
06 [b652609a] (000/116) No match (V2 was not tested)
07 [e9913612] (000/116) No match (V2 was not tested)
08 [caf8a9be] (000/116) No match (V2 was not tested)
09 [2008d237] (000/116) No match (V2 was not tested)
10 [bb474fcf] (000/114) No match (V2 was not tested)
11 [e492f9db] (000/116) No match (V2 was not tested)
12 [eadefa34] (000/115) No match (V2 was not tested)
13 [edcbcc91] (000/114) No match (V2 was not tested)
14 [144e83ff] (000/112) No match (V2 was not tested)

Track Peak [ CRC32 ] [W/O NULL] [ LOG ]
– 100,0 [82CE46B7] [AD409AA3] CRC32
01 100,0 [562E603D] [85A66E94]
02 100,0 [C56D90DF] [509649D8]
03 100,0 [B2E9F03F] [E978FBEC]
04 100,0 [840126DB] [906B46D4]
05 100,0 [0DE5878D] [25211AE6]
06 100,0 [289E7E34] [227E68DE]
07 100,0 [6070208B] [BBFB5E73]
08 100,0 [D47CDB7F] [C2C3D311]
09 100,0 [EA7876C8] [23980FBC]
10 100,0 [FBA3BFF1] [BEA36078]
11 100,0 [450E85D4] [B971B2CB]
12 100,0 [025E4B82] [BA5A5928]
13 99,7 [7F8A5500] [DBB086F1]
14 99,7 [AE1A2DEB] [7A028B33]

Thanks to shareminer

See also:
Katatonia - Last Fair Deal Gon...10th Anniversary Edition 2011]
Katatonia - Viva Emptiness (2003) [10th Anniversary Edition 2013]
Katatonia - Night is the New D...10th Anniversary Edition 2019]
Katatonia - The Fall of Hearts (2016) [Japanese Edition]