Subcategories
Tags
Language
Tags

Ken Vandermark, Tim Daisy - August Music: Live at the Empty Bottle (2007)

Posted By: v3122
Ken Vandermark, Tim Daisy - August Music: Live at the Empty Bottle (2007)

Ken Vandermark, Tim Daisy - August Music: Live at the Empty Bottle (2007)
EAC | Flac(Image) + Cue + Log & MP3 CBR 320Kbps
self released | 181/200 | ~ 337 or 126 Mb | Artwork(jpg) -> 28 Mb
Free Jazz, Experimental

~ Recorded Live at the Empty Bottle, Chicago, IL. , August 1st, 2006. ~

Ken Vandermark, Tim Daisy - August Music: Live at the Empty Bottle (2007):

Ken Vandermark, Tim Daisy - August Music: Live at the Empty Bottle (2007)

Tracklist:

1. Study for Mural
2. Half the Population
3. Hover
4. Red Box
5. Boiled and Fumed
6. 2000 Hours

Ken Vandermark - saxes
Tim Daisy - drums


Exact Audio Copy V0.99 prebeta 5 from 4. May 2009

EAC extraction logfile from 31. December 2010, 18:33

Ken Vandermark - Tim Daisy / August Music

Used drive : TSSTcorpCDDVDW SH-S222A Adapter: 1 ID: 0

Read mode : Secure
Utilize accurate stream : Yes
Defeat audio cache : Yes
Make use of C2 pointers : No

Read offset correction : 6
Overread into Lead-In and Lead-Out : No
Fill up missing offset samples with silence : Yes
Delete leading and trailing silent blocks : No
Null samples used in CRC calculations : Yes
Used interface : Installed external ASPI interface
Gap handling : Appended to previous track

Used output format : User Defined Encoder
Selected bitrate : 768 kBit/s
Quality : High
Add ID3 tag : No
Command line compressor : C:\Tool\Compress\FLAC\flac.exe
Additional command line options : -V -8 -T "ARTIST=%a" -T "TITLE=%t" -T "ALBUM=%g" -T "TRACKNUMBER=%n" -T "GENRE=%m" %s


TOC of the extracted CD

Track | Start | Length | Start sector | End sector
––––––––––––––––––––––––––––-
1 | 0:00.00 | 7:16.34 | 0 | 32733
2 | 7:16.34 | 6:22.62 | 32734 | 61445
3 | 13:39.21 | 9:45.73 | 61446 | 105393
4 | 23:25.19 | 7:19.58 | 105394 | 138376
5 | 30:45.02 | 8:55.05 | 138377 | 178506
6 | 39:40.07 | 13:48.17 | 178507 | 240623


Track 1

Filename C:\Vandermark - Daisy - August Music\01 - Study For Mural.wav

Pre-gap length 0:00:02.00

Peak level 100.0 %
Track quality 100.0 %
Test CRC C4D6EEE0
Copy CRC 99E02DE9
Track not present in AccurateRip database
Copy OK

Track 2

Filename C:\Vandermark - Daisy - August Music\02 - Half The Population.wav

Peak level 100.0 %
Track quality 100.0 %
Test CRC 126D02D0
Copy CRC 126D02D0
Track not present in AccurateRip database
Copy OK

Track 3

Filename C:\Vandermark - Daisy - August Music\03 - Hover.wav

Peak level 100.0 %
Track quality 100.0 %
Test CRC 196D7FE6
Copy CRC 196D7FE6
Track not present in AccurateRip database
Copy OK

Track 4

Filename C:\Vandermark - Daisy - August Music\04 - Red Box.wav

Peak level 100.0 %
Track quality 100.0 %
Test CRC 5ABFC02F
Copy CRC 5ABFC02F
Track not present in AccurateRip database
Copy OK

Track 5

Filename C:\Vandermark - Daisy - August Music\05 - Boiled And Fumed.wav

Peak level 100.0 %
Track quality 100.0 %
Test CRC 138C6401
Copy CRC 138C6401
Track not present in AccurateRip database
Copy OK

Track 6

Filename C:\Vandermark - Daisy - August Music\06 - 2000 Hours.wav

Peak level 100.0 %
Track quality 100.0 %
Test CRC 22D3C369
Copy CRC 22D3C369
Track not present in AccurateRip database
Copy OK


None of the tracks are present in the AccurateRip database

No errors occurred

End of status report


[CUETools log; Date: 03.11.2019 19:52:53; Version: 2.1.4]
[AccurateRip ID: 000b8d5a-003ed896-4b0c8806] found.
Track [ CRC | V2 ] Status
01 [90224a02|b1278f38] (1+0/1) Accurately ripped
02 [c6cbe4ea|19ace5b4] (1+0/1) Accurately ripped
03 [a0cdf3d2|672b4bb2] (1+0/1) Accurately ripped
04 [0e1835d8|aacccd24] (1+0/1) Accurately ripped
05 [d2ccad95|2d0a72a0] (1+0/1) Accurately ripped
06 [b2ff0512|51e0f676] (1+0/1) Accurately ripped

Track Peak [ CRC32 ] [W/O NULL] [ LOG ]
– 100,0 [0B42A00A] [5A67ADB8]
01 100,0 [99E02DE9] [A8700C45] CRC32
02 100,0 [126D02D0] [E254FE4A] CRC32
03 100,0 [196D7FE6] [0FD5D8A6] CRC32
04 100,0 [5ABFC02F] [3A962D6F] CRC32
05 100,0 [138C6401] [6E876910] CRC32
06 100,0 [22D3C369] [7B89DFD2] CRC32


Ken Vandermark, Tim Daisy - August Music: Live at the Empty Bottle (2007)

All thanks go to the original releaser

Ken Vandermark in my Blog

Download Ken Vandermark, Tim Daisy - August Music: Live at the Empty Bottle (2007):